Asuka601
隐世仙人♂

[2023] [欧美] [剧情] [BD-1080P] 飓风[中文字幕/特效字幕].Supercell.2023.BluRay.REMUX.1080p.AVC.DTS-HD.MA5.1-DreamHD 24.28GB

-->

完整标题:飓风[中文字幕/特效字幕].Supercell.2023.BluRay.REMUX.1080p.AVC.DTS-HD.MA5.1-DreamHD 24.28GB



◎标  题 飓风
◎片  名 Supercell
◎年  代 2023
◎产  地 美国
◎类  别 剧情 / 动作 / 冒险
◎语  言 英语
◎上映日期 2023-03-17(美国网络)
◎IMDb评分 4.4/10 (2523人评价)
◎IMDb链接 https://www.imdb.com/title/tt10559102/
◎豆瓣评分 4.1/10 (169人评价)
◎豆瓣链接 https://movie.douban.com/subject/36044736/
◎片  长 100分钟
◎导  演 赫伯特·詹姆斯·温特斯特恩 Herbert James Winterstern
◎编  剧 赫伯特·詹姆斯·温特斯特恩 Herbert James Winterstern
◎演  员 亚历克·鲍德温 Alec Baldwin
      安妮·海切 Anne Heche
      斯基特·乌尔里奇 Skeet Ulrich
      丹尼尔·迪默 Daniel Diemer
      普里亚·苏安达科麦 Poo Priya Suandokemai
      理查德·古恩 Richard Gunn
      乔丹·克里斯汀·西蒙 Jordan Kristine Seamon
      安居尔·尼加姆 Anjul Nigam
      Jane Lind Jane Lind

◎简  介
    一个十几岁的男孩跑去追随他父亲的脚步,传奇的风暴追逐者比尔·布罗迪。

点击图片可查看大图

软字幕无法在截图上展现,HDR版本/杜比视界版本截图会出现颜色异常,请使用支持的设备播放!

##### MediaInfo ######
General
Unique ID : 202509566757302518106432357502165629667 (0x9859EC825E89BF4B1545CD78C1B6BAE3)
Complete name : Supercell.2023.BluRay.REMUX.1080p.AVC.DTS-HD.MA5.1-DreamHD.mkv
Duration : 1 h 41 min
Overall bit rate mode : Variable
Overall bit rate : 34.2 Mb/s

Video
ID : 1
ID in the original source medium : 4113 (0x1011)
Format : AVC
Format/Info : Advanced Video Codec
Format profile : [email protected]
Format settings : CABAC / 3 Ref Frames
Format settings, CABAC : Yes
Format settings, Reference frames : 3 frames
Codec ID : V_MPEG4/ISO/AVC
Duration : 1 h 41 min
Bit rate mode : Variable
Bit rate : 32.1 Mb/s
Maximum bit rate : 40.0 Mb/s
Width : 1 920 pixels
Height : 1 080 pixels
Display aspect ratio : 16:9
Frame rate mode : Constant
Frame rate : 23.976 (24000/1001) FPS
Color space : YUV
Chroma subsampling : 4:2:0
Bit depth : 8 bits
Scan type : Progressive
Bits/(Pixel*Frame) : 0.645
Stream size : 22.8 GiB (94%)
Language : English
Default : No
Forced : No
Color range : Limited
Color primaries : BT.709
Transfer characteristics : BT.709
Matrix coefficients : BT.709
Original source medium : Blu-ray

Audio
ID : 2
ID in the original source medium : 4353 (0x1101)
Format : DTS XLL
Format/Info : Digital Theater Systems
Commercial name : DTS-HD Master Audio
Codec ID : A_DTS
Duration : 1 h 41 min
Bit rate mode : Variable
Bit rate : 1 968 kb/s
Channel(s) : 6 channels
Channel layout : C L R Ls Rs LFE
Sampling rate : 48.0 kHz
Frame rate : 93.750 FPS (512 SPF)
Bit depth : 16 bits
Compression mode : Lossless
Stream size : 1.40 GiB (6%)
Title : 环绕声 5.1
Language : English
Default : Yes
Forced : No
Original source medium : Blu-ray

Text #1
ID : 3
ID in the original source medium : 4610 (0x1202)
Format : PGS
Codec ID : S_HDMV/PGS
Codec ID/Info : Picture based subtitle format used on BDs/HD-DVDs
Duration : 1 h 26 min
Bit rate : 150 b/s
Frame rate : 0.003 FPS
Count of elements : 14
Stream size : 95.4 KiB (0%)
Language : English
Default : Yes
Forced : No
Original source medium : Blu-ray

Text #2
ID : 4
ID in the original source medium : 4611 (0x1203)
Format : PGS
Codec ID : S_HDMV/PGS
Codec ID/Info : Picture based subtitle format used on BDs/HD-DVDs
Duration : 1 h 33 min
Bit rate : 21.5 kb/s
Frame rate : 0.264 FPS
Count of elements : 1490
Stream size : 14.5 MiB (0%)
Language : Chinese
Default : No
Forced : No
Original source medium : Blu-ray

Text #3
ID : 5
ID in the original source medium : 4612 (0x1204)
Format : PGS
Codec ID : S_HDMV/PGS
Codec ID/Info : Picture based subtitle format used on BDs/HD-DVDs
Duration : 1 h 33 min
Bit rate : 21.9 kb/s
Frame rate : 0.264 FPS
Count of elements : 1490
Stream size : 14.7 MiB (0%)
Language : Chinese
Default : No
Forced : No
Original source medium : Blu-ray

Text #4
ID : 6
ID in the original source medium : 4613 (0x1205)
Format : PGS
Codec ID : S_HDMV/PGS
Codec ID/Info : Picture based subtitle format used on BDs/HD-DVDs
Duration : 1 h 33 min
Bit rate : 39.8 kb/s
Frame rate : 0.264 FPS
Count of elements : 1490
Stream size : 26.8 MiB (0%)
Language : Chinese
Default : No
Forced : No
Original source medium : Blu-ray

Text #5
ID : 7
ID in the original source medium : 4614 (0x1206)
Format : PGS
Codec ID : S_HDMV/PGS
Codec ID/Info : Picture based subtitle format used on BDs/HD-DVDs
Duration : 1 h 33 min
Bit rate : 40.2 kb/s
Frame rate : 0.264 FPS
Count of elements : 1490
Stream size : 27.0 MiB (0%)
Language : Chinese
Default : No
Forced : No
Original source medium : Blu-ray

Menu
00:00:00.000 : en:Chapter 01
00:07:55.558 : en:Chapter 02
00:15:54.995 : en:Chapter 03
00:21:48.015 : en:Chapter 04
00:28:58.403 : en:Chapter 05
00:33:27.964 : en:Chapter 06
00:37:44.762 : en:Chapter 07
00:44:56.985 : en:Chapter 08
00:55:31.786 : en:Chapter 09
01:09:57.610 : en:Chapter 10
01:16:08.730 : en:Chapter 11
01:27:23.112 : en:Chapter 12


部分资源为软字幕,移动端推荐播放器:MxPlayer,nPlayer,infuse ,其他播放器请自行尝试。

部分资源为软字幕,电脑端推荐播放器:PotPlayer,完美解码,KMPLAYER,其他播放器请自行尝试。



1 个附件 售价 大小 下载 时间

Supercell.2023.BluRay.REMUX.1080p.AVC.DTS-HD.MA5.1-DreamHD[1LOU.ME].torrent 0 金币 63.78K 1736 次 1月前

#1楼
发帖时间:2024-02-26 14:36:26   |   回复数:1
139336433
一派掌门
必须支持,必须的必!!
1月前 #2楼
游客组