Asuka601
隐世仙人♂

[更 早] [韩国] [剧情] [BD-1080P] 误发弹[中文字幕].Aimles.Bullet.1961.Bluray.1080p.AAC2.0.x264-DreamHD 3.20GB

-->

完整标题:误发弹[中文字幕].Aimles.Bullet.1961.Bluray.1080p.AAC2.0.x264-DreamHD 3.20GB



◎标  题 误发弹
◎译  名 Obaltan / The Aimless Bullet / The Stray Bullet
◎片  名 오발탄
◎年  代 1961
◎产  地 韩国
◎类  别 剧情
◎语  言 韩语 / 英语
◎上映日期 1961-04-13(韩国)
◎IMDb评分 7.2/10 (693人评价)
◎IMDb链接 https://www.imdb.com/title/tt0053577/
◎豆瓣评分 7.8/10 (453人评价)
◎豆瓣链接 https://movie.douban.com/subject/1401845/
◎片  长 107分钟
◎导  演 俞贤穆 Hyun Mok Yoo
◎编  剧 李范宣 Beom-seon Lee
◎演  员 金振奎 Jin Kyu Kim
      崔戊龙 Mu-ryong Choi
      文贞淑 Jeong-suk Moon
      金惠贞 Hye-jeong Kim

◎简  介
    会计事务所的职员宋哲浩的工资还不足支付交通费,过着悲惨无比的生活。极度贫穷的生活迫使他的妹妹成了以美军为服务对象的妓女。影片通过从朝鲜到韩国的宋哲浩一家的生活,极为生动地描绘了50年代韩国社会的贫困和黑暗,反映了五十年代的韩国在美军管制下的社会生活。这部电影由于思想过于阴暗以及与敌对国朝鲜有关联曾被禁映,多年后才重见天日。

点击图片可查看大图

软字幕无法在截图上展现,HDR版本/杜比视界版本截图会出现颜色异常,请使用支持的设备播放!

##### MediaInfo ######
General
Complete name : Aimles.Bullet.1961.Bluray.1080p.AAC2.0.x264-DreamHD.mp4
Duration : 1 h 49 min
Overall bit rate : 4 193 kb/s

Video
ID : 1
Format : AVC
Format/Info : Advanced Video Codec
Format profile : [email protected]
Format settings : 4 Ref Frames
Format settings, CABAC : No
Format settings, Reference frames : 4 frames
Codec ID : avc1
Codec ID/Info : Advanced Video Coding
Duration : 1 h 49 min
Bit rate : 3 998 kb/s
Width : 1 920 pixels
Height : 1 080 pixels
Display aspect ratio : 16:9
Frame rate mode : Variable
Frame rate : 23.976 (24000/1001) FPS
Minimum frame rate : 23.974 FPS
Maximum frame rate : 23.981 FPS
Color space : YUV
Chroma subsampling : 4:2:0
Bit depth : 8 bits
Scan type : Progressive
Bits/(Pixel*Frame) : 0.080
Stream size : 3.05 GiB (95%)
Writing library : x264 core 164 r3100 ed0f7a6
Encoding settings : cabac=0 / ref=4 / deblock=0:0:0 / analyse=0x1:0x111 / me=hex / subme=8 / psy=1 / psy_rd=1.00:0.00 / mixed_ref=1 / me_range=16 / chroma_me=1 / trellis=2 / 8x8dct=0 / cqm=0 / deadzone=21,11 / fast_pskip=1 / chroma_qp_offset=-2 / threads=34 / lookahead_threads=5 / sliced_threads=0 / nr=0 / decimate=1 / interlaced=0 / bluray_compat=0 / constrained_intra=0 / bframes=3 / b_pyramid=2 / b_adapt=1 / b_bias=0 / direct=3 / weightb=0 / open_gop=0 / weightp=0 / keyint=240 / keyint_min=24 / scenecut=40 / intra_refresh=0 / rc_lookahead=50 / rc=2pass / mbtree=1 / bitrate=4000 / ratetol=1.0 / qcomp=0.60 / qpmin=0 / qpmax=69 / qpstep=4 / cplxblur=20.0 / qblur=0.5 / vbv_maxrate=50000 / vbv_bufsize=62500 / nal_hrd=none / filler=0 / ip_ratio=1.40 / aq=1:1.00
Encoded date : UTC 2024-02-25 13:29:16
Tagged date : UTC 2024-02-25 13:29:16
Color range : Limited
Color primaries : BT.709
Transfer characteristics : BT.709
Matrix coefficients : BT.709
Menus : 3
mdhd_Duration : 6552712
Codec configuration box : avcC

Audio
ID : 2
Format : AAC LC
Format/Info : Advanced Audio Codec Low Complexity
Codec ID : mp4a-40-2
Duration : 1 h 49 min
Source duration : 1 h 49 min
Bit rate mode : Constant
Bit rate : 192 kb/s
Channel(s) : 2 channels
Channel layout : L R
Sampling rate : 48.0 kHz
Frame rate : 46.875 FPS (1024 SPF)
Compression mode : Lossy
Stream size : 147 MiB (4%)
Source stream size : 147 MiB (4%)
Title : 立体声
Language : Korean
Default : Yes
Alternate group : 1
Encoded date : UTC 2024-02-25 13:29:16
Tagged date : UTC 2024-02-25 13:29:16
Menus : 3

Menu
ID : 3
Format : Timed Text
Codec ID : text
Duration : 1 h 49 min
Language : English
Encoded date : UTC 2024-02-25 13:29:16
Tagged date : UTC 2024-02-25 13:29:16
Menu For : 1,2
00:00:00.000 : Chapter 1
00:08:01.231 : Chapter 2
00:26:13.739 : Chapter 3
00:35:13.778 : Chapter 4
00:42:20.038 : Chapter 5
00:55:17.189 : Chapter 6
01:04:55.392 : Chapter 7
01:11:04.260 : Chapter 8
01:17:38.445 : Chapter 9
01:28:40.232 : Chapter 10
01:38:20.686 : Chapter 11
01:44:04.029 : Chapter 12


部分资源为软字幕,移动端推荐播放器:MxPlayer,nPlayer,infuse ,其他播放器请自行尝试。

部分资源为软字幕,电脑端推荐播放器:PotPlayer,完美解码,KMPLAYER,其他播放器请自行尝试。



2 个附件 售价 大小 下载 时间

Aimles.Bullet.1961.Bluray.1080p.AAC2.0.x264-DreamHD[1LOU.ME].torrent 0 金币 11.14K 1393 次 1月前

Aimles.Bullet.1961.Bluray.1080p.AAC2.0.x264-DreamHD[1LOU.ME].torrent 0 金币 11.14K 924 次 1月前

#1楼
发帖时间:2024-02-26 21:17:10   |   回复数:0
游客组