BILL36
隐世仙人♂

[2024] [日本] [剧情] [WEB-1080P] 再见了指挥大师~父亲与我的热情~[第07集][中文字幕].2024.1080p.Hami.WEB-DL.H264.AAC-LelveTV 2.57GB

-->

完整标题:再见了指挥大师~父亲与我的热情~[第07集][中文字幕].2024.1080p.Hami.WEB-DL.H264.AAC-LelveTV 2.57GB



◎标  题 再见了指挥大师~父亲与我的热情~
◎译  名 再见 Maestro 〜父亲和我的 Appassionato 〜
◎片  名 さよならマエストロ~父と私のアパッシオナート~
◎年  代 2024
◎产  地 日本
◎类  别 剧情 / 家庭
◎语  言 日语
◎IMDb链接 https://www.imdb.com/title//
◎豆瓣链接 https://movie.douban.com/subject/36622912/
◎导  演 坪井敏雄 Tsuboi Toshio
      石井康晴 Yasuharu Ishii
◎编  剧 大岛里美 Satomi Oshima
◎演  员 西岛秀俊 Hidetoshi Nishijima
      芦田爱菜 Mana Ashida
      新木优子 Yuko Araki
      宫泽冰鱼 Hio Miyazawa
      玉山铁二 Tetsuji Tamayama
      满岛真之介 Shin'nosuke Mitsushima
      津田宽治 Kanji Tsuda
      石田百合子 Yuriko Ishida
      当真亚美 Ami Touma
      西田敏行 Toshiyuki Nishida

◎简  介
    该剧讲述笨拙的父亲和叛逆女儿的父女亲情故事。西岛秀俊饰演天才指挥家夏目俊平,但是除了音乐以外的能力都是零。芦田爱菜饰演他的女儿、在市政府工作的20岁女性夏目响。与父亲完全相反,讨厌音乐,过着没有音乐的人生的响因5年前的“某个事件”与父亲诀别,但时隔数十年父亲突然回国,两人开始了尴尬的同居生活。

部分资源为软字幕,移动端推荐播放器:MxPlayer,nPlayer,infuse ,其他播放器请自行尝试。

部分资源为软字幕,电脑端推荐播放器:PotPlayer,完美解码,KMPLAYER,其他播放器请自行尝试。

##### MediaInfo ######
General
Unique ID : 334698036200390288926277572819597298282 (0xFBCC7F3D00F6454485D01621B51E8A6A)
Complete name : Goodbye.Maestro.Father.and.My.Appassionato.S01E07.2024.1080p.Hami.WEB-DL.H264.AAC-LelveTV.mkv
Duration : 46 min 5 s
Overall bit rate : 7 984 kb/s

Video
ID : 1
Format : AVC
Format/Info : Advanced Video Codec
Format profile : High@L4
Format settings : CABAC / 3 Ref Frames
Format settings, CABAC : Yes
Format settings, Reference frames : 3 frames
Format settings, GOP : M=1, N=30
Codec ID : V_MPEG4/ISO/AVC
Duration : 46 min 5 s
Bit rate : 7 872 kb/s
Width : 1 920 pixels
Height : 1 080 pixels
Display aspect ratio : 16:9
Frame rate mode : Constant
Frame rate : 29.970 (29970/1000) FPS
Color space : YUV
Chroma subsampling : 4:2:0
Bit depth : 8 bits
Scan type : Progressive
Bits/(Pixel*Frame) : 0.127
Stream size : 2.53 GiB (98%)
Writing library : x264 core 157 r2935 545de2f
Encoding settings : cabac=1 / ref=3 / deblock=1:0:0 / analyse=0x3:0x113 / me=hex / subme=7 / psy=1 / psy_rd=1.00:0.00 / mixed_ref=1 / me_range=16 / chroma_me=1 / trellis=1 / 8x8dct=1 / cqm=0 / deadzone=21,11 / fast_pskip=1 / chroma_qp_offset=-2 / threads=34 / lookahead_threads=5 / sliced_threads=0 / nr=0 / decimate=1 / interlaced=0 / bluray_compat=0 / constrained_intra=0 / bframes=0 / weightp=2 / keyint=30 / keyint_min=16 / scenecut=0 / intra_refresh=0 / rc_lookahead=30 / rc=abr / mbtree=1 / bitrate=7872 / ratetol=1.0 / qcomp=0.60 / qpmin=0 / qpmax=69 / qpstep=4 / vbv_maxrate=8000 / vbv_bufsize=7872 / nal_hrd=none / filler=0 / ip_ratio=1.40 / aq=1:1.00
Default : Yes
Forced : No

Audio
ID : 2
Format : AAC LC
Format/Info : Advanced Audio Codec Low Complexity
Codec ID : A_AAC-2
Duration : 46 min 5 s
Bit rate : 128 kb/s
Channel(s) : 2 channels
Channel layout : L R
Sampling rate : 48.0 kHz
Frame rate : 46.875 FPS (1024 SPF)
Compression mode : Lossy
Stream size : 42.3 MiB (2%)
Default : Yes
Forced : No


点击图片可查看大图

软字幕无法在截图上展现,HDR版本/杜比视界版本截图会出现颜色异常,请使用支持的设备播放!



1 个附件 售价 大小 下载 时间

2024.1080p.Hami.WEB-DL.H264.AAC-LelveTV[1LOU.ME].torrent 0 金币 9.38K 259 次 1月前

#1楼
发帖时间:2024-02-27 22:57:05   |   回复数:0
游客组