BILL36
隐世仙人♂

[2024] [美国] [剧情] [WEB-4K] 幕府将军[第01-02集][中文字幕].Shogun.S01.2160p.Disney.WEB-DL.DDP.5.1.H.265-BlackTV 17.06GB

-->

完整标题:幕府将军[第01-02集][中文字幕].Shogun.S01.2160p.Disney.WEB-DL.DDP.5.1.H.265-BlackTV 17.06GB



◎标  题 幕府将军
◎译  名 Shogun
◎片  名 Shōgun
◎年  代 2024
◎产  地 美国
◎类  别 剧情 / 历史 / 战争 / 冒险
◎语  言 英语 / 日语
◎IMDb评分 9.4/10 (203人评价)
◎IMDb链接 https://www.imdb.com/title/tt2788316/
◎豆瓣链接 https://movie.douban.com/subject/30291334/
◎导  演 乔纳森·范塔勒肯 Jonathan van Tulleken
◎编  剧 雷切尔·近藤 Rachel Kondo
      梅根·黄 Maegan Houang
      贾斯丁·马科斯 Justin Marks
      詹姆斯·克拉韦尔 James Clavell
◎演  员 真田广之 Hiroyuki Sanada
      柯斯莫·贾维斯 Cosmo Jarvis
      泽井杏奈 Anna Sawai
      浅野忠信 Tadanobu Asano
      二阶堂富美 Fumi Nikaidou
      西冈德马 Tokuma Nishioka
      平岳大 Takehiro Hira
      阿部进之介 Shinnosuke Abe
      祁答院雄贵 Yuki Kedouin
      尤新·李 Eushin Lee
      托米·巴斯托 Tommy Bastow
      金井浩人 Hiroto Kanei
      博元·井田 Hiromoto Ida
      江见·神藤 Emi Kamito
      健吾·桥本 Kengo Hashimoto
      森·马尔斯 Sen Mars
      俊·户田 Toshi Toda
      真子·藤本 Mako Fujimoto
      优香·古宇利 Yuka Kouri
      安成·竹岛 Yasunari Takeshima
      展也·岛本 Nobuya Shimamoto
      田尻纯一 Junichi Tajiri
      保罗·程 Paul Cheng
      达科他·道尔比 Dakota Daulby
      亚子 Ako
      内斯特·卡博内尔 Nestor Carbonell
      洞口依子 Yoriko Douguchi
      穗志萌香 Moeka Hoshi
      金川弘敦 Hiro Kanagawa

◎简  介
    该剧根据1975年James Clavell的同名畅销小说改编。故事背景为1600年的日本,当时正值一场世纪内战的黎明,即关原合战。面对五大老中的敌人联合起来对抗自己,Yoshii Toranaga大名(真田广之 饰)必须为性命而战。   当一艘神秘的欧洲船只被发现困在附近的一个渔村后,船上的英国引航员John Blackthorne(柯斯莫·贾维斯 饰)带来了可能帮助Toranaga颠覆权力天平的秘密,这些秘密也可能摧毁Blackthorne自己的敌人——耶稣会教士和葡萄牙商人拥有的强大影响力。   Toranaga和Blackthorne的命运与他们的翻译Toda Mariko(泽井杏奈 饰)变得密不可分。Mariko是一位神秘的基督教女子,来自没落贵族血脉的最后一位家族成员。在政治局势动荡的时代,Mariko不仅要为她的大名服务,还必须在自己与Blackthorne建立的新关系、对信仰和先父遗愿的使命感之间找到平衡点。   原著通过西方和日本两个角度来讲述,背景设置在日本的江户幕府时代,原型是德川家康和三浦按针。

部分资源为软字幕,移动端推荐播放器:MxPlayer,nPlayer,infuse ,其他播放器请自行尝试。

部分资源为软字幕,电脑端推荐播放器:PotPlayer,完美解码,KMPLAYER,其他播放器请自行尝试。

##### MediaInfo ######
General
Unique ID : 65678919978600239338436842112122872693 (0x31694CC44AC7D5520B51379B656BE375)
Complete name : Shogun.S01E01.Anjin.2160p.Disney.WEB-DL.DDP.5.1.H.265-BlackTV.mkv
Duration : 1 h 9 min
Overall bit rate : 19.1 Mb/s

Video
ID : 1
Format : HEVC
Format/Info : High Efficiency Video Coding
Format profile : Main@L5@Main
Codec ID : V_MPEGH/ISO/HEVC
Duration : 1 h 9 min
Bit rate : 18.8 Mb/s
Width : 3 840 pixels
Height : 2 160 pixels
Display aspect ratio : 16:9
Frame rate mode : Constant
Frame rate : 24.000 FPS
Color space : YUV
Chroma subsampling : 4:2:0
Bit depth : 8 bits
Bits/(Pixel*Frame) : 0.095
Stream size : 9.21 GiB (99%)
Writing library : x265 3.5:[Linux][GCC 9.4.0][64 bit] 8bit+10bit+12bit
Encoding settings : cpuid=1111039 / frame-threads=1 / numa-pools=16 / wpp / no-pmode / no-pme / no-psnr / no-ssim / log-level=2 / input-csp=1 / input-res=3840x2160 / interlace=0 / total-frames=0 / level-idc=50 / high-tier=1 / uhd-bd=0 / ref=2 / no-allow-non-conformance / repeat-headers / annexb / no-aud / no-hrd / info / hash=0 / no-temporal-layers / no-open-gop / min-keyint=48 / keyint=48 / gop-lookahead=0 / bframes=4 / b-adapt=1 / b-pyramid / bframe-bias=0 / rc-lookahead=48 / lookahead-slices=8 / scenecut=0 / hist-scenecut=0 / radl=0 / no-splice / no-intra-refresh / ctu=32 / min-cu-size=8 / no-rect / no-amp / max-tu-size=16 / tu-inter-depth=2 / tu-intra-depth=2 / limit-tu=0 / rdoq-level=1 / dynamic-rd=0.00 / no-ssim-rd / signhide / no-tskip / nr-intra=0 / nr-inter=0 / no-constrained-intra / no-strong-intra-smoothing / max-merge=3 / limit-refs=1 / no-limit-modes / me=1 / subme=2 / merange=44 / temporal-mvp / no-frame-dup / no-hme / weightp / no-weightb / no-analyze-src-pics / deblock=0:0 / no-sao / no-sao-non-deblock / rd=4 / selective-sao=0 / early-skip / rskip / no-fast-intra / no-tskip-fast / no-cu-lossless / b-intra / no-splitrd-skip / rdpenalty=1 / psy-rd=1.60 / psy-rdoq=5.00 / no-rd-refine / no-lossless / cbqpoffs=0 / crqpoffs=0 / rc=abr / bitrate=20000 / qcomp=0.75 / qpstep=4 / stats-write=0 / stats-read=0 / vbv-maxrate=24000 / vbv-bufsize=25000 / vbv-init=0.9 / ipratio=1.40 / pbratio=1.30 / aq-mode=3 / aq-strength=1.00 / no-cutree / zone-count=0 / no-strict-cbr / qg-size=32 / no-rc-grain / qpmax=69 / qpmin=0 / no-const-vbv / sar=1 / overscan=0 / videoformat=5 / range=0 / colorprim=1 / transfer=1 / colormatrix=1 / chromaloc=0 / display-window=0 / cll=0,0 / min-luma=0 / max-luma=255 / log2-max-poc-lsb=8 / vui-timing-info / vui-hrd-info / slices=1 / no-opt-qp-pps / no-opt-ref-list-length-pps / no-multi-pass-opt-rps / scenecut-bias=0.00 / hist-threshold=0.01 / no-opt-cu-delta-qp / no-aq-motion / no-hdr10 / no-hdr10-opt / no-dhdr10-opt / no-idr-recovery-sei / analysis-reuse-level=0 / analysis-save-reuse-level=0 / analysis-load-reuse-level=0 / scale-factor=0 / refine-intra=0 / refine-inter=0 / refine-mv=1 / refine-ctu-distortion=0 / no-limit-sao / ctu-info=0 / no-lowpass-dct / refine-analysis-type=0 / copy-pic=1 / max-ausize-factor=1.0 / no-dynamic-refine / no-single-sei / no-hevc-aq / no-svt / no-field / qp-adaptation-range=1.00 / no-scenecut-aware-qpconformance-window-offsets / right=0 / bottom=0
Language : English
Default : Yes
Forced : No
Color range : Limited
Color primaries : BT.709
Transfer characteristics : BT.709
Matrix coefficients : BT.709

Audio
ID : 2
Format : E-AC-3
Format/Info : Enhanced AC-3
Commercial name : Dolby Digital Plus
Codec ID : A_EAC3
Duration : 1 h 9 min
Bit rate mode : Constant
Bit rate : 256 kb/s
Channel(s) : 6 channels
Channel layout : L R C LFE Ls Rs
Sampling rate : 48.0 kHz
Frame rate : 31.250 FPS (1536 SPF)
Compression mode : Lossy
Stream size : 128 MiB (1%)
Language : English
Service kind : Complete Main
Default : Yes
Forced : No

Text #1
ID : 3
Format : UTF-8
Codec ID : S_TEXT/UTF8
Codec ID/Info : UTF-8 Plain Text
Duration : 55 min 32 s
Bit rate : 27 b/s
Frame rate : 0.117 FPS
Count of elements : 391
Stream size : 11.0 KiB (0%)
Title : Forced
Language : English
Default : Yes
Forced : Yes

Text #2
ID : 4
Format : UTF-8
Codec ID : S_TEXT/UTF8
Codec ID/Info : UTF-8 Plain Text
Duration : 1 h 5 min
Bit rate : 55 b/s
Frame rate : 0.223 FPS
Count of elements : 873
Stream size : 26.4 KiB (0%)
Title : SDH
Language : English
Default : No
Forced : No

Text #3
ID : 5
Format : UTF-8
Codec ID : S_TEXT/UTF8
Codec ID/Info : UTF-8 Plain Text
Duration : 1 h 9 min
Bit rate : 42 b/s
Frame rate : 0.171 FPS
Count of elements : 707
Stream size : 21.4 KiB (0%)
Title : Traditional
Language : Chinese
Default : No
Forced : No

Text #4
ID : 6
Format : UTF-8
Codec ID : S_TEXT/UTF8
Codec ID/Info : UTF-8 Plain Text
Duration : 1 h 9 min
Bit rate : 45 b/s
Frame rate : 0.163 FPS
Count of elements : 676
Stream size : 23.1 KiB (0%)
Language : Czech
Default : No
Forced : No

Text #5
ID : 7
Format : UTF-8
Codec ID : S_TEXT/UTF8
Codec ID/Info : UTF-8 Plain Text
Duration : 1 h 9 min
Bit rate : 41 b/s
Frame rate : 0.169 FPS
Count of elements : 701
Stream size : 21.0 KiB (0%)
Language : Danish
Default : No
Forced : No

Text #6
ID : 8
Format : UTF-8
Codec ID : S_TEXT/UTF8
Codec ID/Info : UTF-8 Plain Text
Duration : 1 h 9 min
Bit rate : 48 b/s
Frame rate : 0.170 FPS
Count of elements : 705
Stream size : 24.6 KiB (0%)
Language : German
Default : No
Forced : No

Text #7
ID : 9
Format : UTF-8
Codec ID : S_TEXT/UTF8
Codec ID/Info : UTF-8 Plain Text
Duration : 1 h 9 min
Bit rate : 78 b/s
Frame rate : 0.169 FPS
Count of elements : 702
Stream size : 39.5 KiB (0%)
Language : Greek
Default : No
Forced : No

Text #8
ID : 10
Format : UTF-8
Codec ID : S_TEXT/UTF8
Codec ID/Info : UTF-8 Plain Text
Duration : 1 h 9 min
Bit rate : 43 b/s
Frame rate : 0.164 FPS
Count of elements : 681
Stream size : 22.0 KiB (0%)
Title : Latin America
Language : Spanish
Default : No
Forced : No

Text #9
ID : 11
Format : UTF-8
Codec ID : S_TEXT/UTF8
Codec ID/Info : UTF-8 Plain Text
Duration : 1 h 9 min
Bit rate : 43 b/s
Frame rate : 0.171 FPS
Count of elements : 707
Stream size : 22.2 KiB (0%)
Language : Spanish
Default : No
Forced : No

Text #10
ID : 12
Format : UTF-8
Codec ID : S_TEXT/UTF8
Codec ID/Info : UTF-8 Plain Text
Duration : 1 h 9 min
Bit rate : 45 b/s
Frame rate : 0.157 FPS
Count of elements : 651
Stream size : 22.9 KiB (0%)
Language : Finnish
Default : No
Forced : No

Text #11
ID : 13
Format : UTF-8
Codec ID : S_TEXT/UTF8
Codec ID/Info : UTF-8 Plain Text
Duration : 1 h 9 min
Bit rate : 46 b/s
Frame rate : 0.166 FPS
Count of elements : 688
Stream size : 23.6 KiB (0%)
Language : French
Default : No
Forced : No

Text #12
ID : 14
Format : UTF-8
Codec ID : S_TEXT/UTF8
Codec ID/Info : UTF-8 Plain Text
Duration : 1 h 9 min
Bit rate : 46 b/s
Frame rate : 0.169 FPS
Count of elements : 700
Stream size : 23.3 KiB (0%)
Language : Hungarian
Default : No
Forced : No

Text #13
ID : 15
Format : UTF-8
Codec ID : S_TEXT/UTF8
Codec ID/Info : UTF-8 Plain Text
Duration : 1 h 9 min
Bit rate : 43 b/s
Frame rate : 0.166 FPS
Count of elements : 689
Stream size : 22.0 KiB (0%)
Language : Italian
Default : No
Forced : No

Text #14
ID : 16
Format : UTF-8
Codec ID : S_TEXT/UTF8
Codec ID/Info : UTF-8 Plain Text
Duration : 1 h 6 min
Bit rate : 65 b/s
Frame rate : 0.220 FPS
Count of elements : 881
Stream size : 32.1 KiB (0%)
Title : SDH
Language : Japanese
Default : No
Forced : No

Text #15
ID : 17
Format : UTF-8
Codec ID : S_TEXT/UTF8
Codec ID/Info : UTF-8 Plain Text
Duration : 1 h 9 min
Bit rate : 54 b/s
Frame rate : 0.171 FPS
Count of elements : 707
Stream size : 27.3 KiB (0%)
Language : Korean
Default : No
Forced : No

Text #16
ID : 18
Format : UTF-8
Codec ID : S_TEXT/UTF8
Codec ID/Info : UTF-8 Plain Text
Duration : 1 h 9 min
Bit rate : 43 b/s
Frame rate : 0.137 FPS
Count of elements : 566
Stream size : 22.1 KiB (0%)
Language : Dutch
Default : No
Forced : No

Text #17
ID : 19
Format : UTF-8
Codec ID : S_TEXT/UTF8
Codec ID/Info : UTF-8 Plain Text
Duration : 1 h 9 min
Bit rate : 42 b/s
Frame rate : 0.165 FPS
Count of elements : 684
Stream size : 21.4 KiB (0%)
Language : Norwegian
Default : No
Forced : No

Text #18
ID : 20
Format : UTF-8
Codec ID : S_TEXT/UTF8
Codec ID/Info : UTF-8 Plain Text
Duration : 1 h 9 min
Bit rate : 43 b/s
Frame rate : 0.168 FPS
Count of elements : 696
Stream size : 22.0 KiB (0%)
Language : Polish
Default : No
Forced : No

Text #19
ID : 21
Format : UTF-8
Codec ID : S_TEXT/UTF8
Codec ID/Info : UTF-8 Plain Text
Duration : 1 h 9 min
Bit rate : 42 b/s
Frame rate : 0.166 FPS
Count of elements : 687
Stream size : 21.3 KiB (0%)
Title : Brazil
Language : Portuguese
Default : No
Forced : No

Text #20
ID : 22
Format : UTF-8
Codec ID : S_TEXT/UTF8
Codec ID/Info : UTF-8 Plain Text
Duration : 1 h 9 min
Bit rate : 44 b/s
Frame rate : 0.170 FPS
Count of elements : 703
Stream size : 22.4 KiB (0%)
Language : Portuguese
Default : No
Forced : No

Text #21
ID : 23
Format : UTF-8
Codec ID : S_TEXT/UTF8
Codec ID/Info : UTF-8 Plain Text
Duration : 1 h 9 min
Bit rate : 44 b/s
Frame rate : 0.147 FPS
Count of elements : 608
Stream size : 22.3 KiB (0%)
Language : Romanian
Default : No
Forced : No

Text #22
ID : 24
Format : UTF-8
Codec ID : S_TEXT/UTF8
Codec ID/Info : UTF-8 Plain Text
Duration : 1 h 9 min
Bit rate : 42 b/s
Frame rate : 0.171 FPS
Count of elements : 707
Stream size : 21.6 KiB (0%)
Language : Slovak
Default : No
Forced : No

Text #23
ID : 25
Format : UTF-8
Codec ID : S_TEXT/UTF8
Codec ID/Info : UTF-8 Plain Text
Duration : 1 h 9 min
Bit rate : 42 b/s
Frame rate : 0.162 FPS
Count of elements : 670
Stream size : 21.3 KiB (0%)
Language : Swedish
Default : No
Forced : No

Text #24
ID : 26
Format : UTF-8
Codec ID : S_TEXT/UTF8
Codec ID/Info : UTF-8 Plain Text
Duration : 1 h 9 min
Bit rate : 44 b/s
Frame rate : 0.169 FPS
Count of elements : 700
Stream size : 22.6 KiB (0%)
Language : Turkish
Default : No
Forced : No


点击图片可查看大图

软字幕无法在截图上展现,HDR版本/杜比视界版本截图会出现颜色异常,请使用支持的设备播放!



1 个附件 售价 大小 下载 时间

Shogun.S01.2160p.Disney.WEB-DL.DDP.5.1.H.265-BlackTV[1LOU.ME].torrent 0 金币 45.66K 4592 次 1月前

#1楼
发帖时间:2024-02-27 23:12:57   |   回复数:1
性感女神_aim
小有名气
1
1月前 #2楼
游客组