BILL36
隐世仙人♂

[2024] [大陆] [剧情] [WEB-4K] 时光正好[第16-17集][国语配音/中文字幕].Just.in.Time.S01.2024.2160p.WEB-DL.H265.DDP5.1-ZeroTV 2

-->

完整标题:时光正好[第16-17集][国语配音/中文字幕].Just.in.Time.S01.2024.2160p.WEB-DL.H265.DDP5.1-ZeroTV 2.71GB



◎标  题 时光正好
◎译  名 姐姐们的人生下半场
◎年  代 2024
◎产  地 中国大陆
◎类  别 剧情
◎语  言 汉语普通话
◎IMDb链接 https://www.imdb.com/title/tt28143609/
◎豆瓣链接 https://movie.douban.com/subject/35390203/
◎导  演 韩晓军 Xiaojun Han
◎编  剧 徐然 Ran Xu
      蒋离子 Lizi Jiang
◎演  员 秦海璐 Hailu Qin
      保剑锋 Jianfeng Bao
      左小青 Xiaoqing Zuo
      田雨 Yu Tian
      潘之琳 Zhilin Pan
      杜源 Yuan Du
      贾笑涵 Xiaohan Jia
      章涛 Tao Zhang
      孙浩 Hao Sun
      李依晓 Xiaoyi Li
      谭凯 Kai Tan
      穆丽燕 Liyan Mu

◎简  介
    《时光正好》是由韩晓军执导,秦海璐、保剑锋、左小青、田雨领衔主演的都市生活治愈剧 。该剧根据蒋离子的小说《老妈有喜》改编。

部分资源为软字幕,移动端推荐播放器:MxPlayer,nPlayer,infuse ,其他播放器请自行尝试。

部分资源为软字幕,电脑端推荐播放器:PotPlayer,完美解码,KMPLAYER,其他播放器请自行尝试。

下载端推荐纯BT下载软件:qBittorrent,Bitcomet,uTorrent ,其他下载软件请自行尝试。不支持吸血迅雷。

##### MediaInfo ######
General
Unique ID : 47725444869429202123609171145143549244 (0x23E7961A44B4330616257EE03DFEFD3C)
Complete name : 时光正好.Just.in.Time.S01E16.2024.2160p.WEB-DL.H265.DDP5.1-ZeroTV.mkv
Duration : 45 min 51 s
Overall bit rate : 4 218 kb/s

Video
ID : 1
Format : HEVC
Format/Info : High Efficiency Video Coding
Format profile : Main@L5@Main
Codec ID : V_MPEGH/ISO/HEVC
Duration : 45 min 51 s
Bit rate : 3 769 kb/s
Width : 3 840 pixels
Height : 2 160 pixels
Display aspect ratio : 16:9
Frame rate mode : Constant
Frame rate : 25.000 FPS
Color space : YUV
Chroma subsampling : 4:2:0
Bit depth : 8 bits
Bits/(Pixel*Frame) : 0.018
Stream size : 1.21 GiB (89%)
Default : Yes
Forced : No

Audio #1
ID : 2
Format : AAC LC
Format/Info : Advanced Audio Codec Low Complexity
Codec ID : A_AAC-2
Duration : 45 min 51 s
Bit rate : 192 kb/s
Channel(s) : 2 channels
Channel layout : L R
Sampling rate : 44.1 kHz
Frame rate : 43.066 FPS (1024 SPF)
Compression mode : Lossy
Stream size : 62.3 MiB (5%)
Language : Chinese
Default : No
Forced : No

Audio #2
ID : 3
Format : E-AC-3
Format/Info : Enhanced AC-3
Commercial name : Dolby Digital Plus
Codec ID : A_EAC3
Duration : 45 min 51 s
Bit rate mode : Constant
Bit rate : 256 kb/s
Channel(s) : 6 channels
Channel layout : L R C LFE Ls Rs
Sampling rate : 48.0 kHz
Frame rate : 31.250 FPS (1536 SPF)
Compression mode : Lossy
Stream size : 84.0 MiB (6%)
Language : Chinese
Service kind : Complete Main
Default : Yes
Forced : No


点击图片可查看大图

软字幕无法在截图上展现,HDR版本/杜比视界版本截图会出现颜色异常,请使用支持的设备播放!



1 个附件 售价 大小 下载 时间

Just.in.Time.S01.2024.2160p.WEB-DL.H265.DDP5.1-ZeroTV[1LOU.ME].torrent 0 金币 9.35K 140 次 4天前

#1楼
发帖时间:2024-06-11 22:16:55   |   回复数:0
游客组