BILL36
隐世仙人♂

[2024] [美国] [剧情] [WEB-1080P] 斯特林韵事[第03集][中文字幕].Clipped.S01.1080p.DSNP.WEB-DL.DDP.5.1.H.264-BlackTV 2.30GB

-->

完整标题:斯特林韵事[第03集][中文字幕].Clipped.S01.1080p.DSNP.WEB-DL.DDP.5.1.H.264-BlackTV 2.30GB



◎标  题 斯特林韵事
◎译  名 快船风云 / 快艇风云(台) / 斯特林那些事儿 / The Sterling Affairs‎
◎片  名 Clipped
◎年  代 2024
◎产  地 美国
◎类  别 剧情
◎语  言 英语
◎IMDb评分 6.6/10 (276人评价)
◎IMDb链接 https://www.imdb.com/title/tt19380952/
◎豆瓣链接 https://movie.douban.com/subject/35858322/
◎编  剧 拉蒙娜·谢尔本 Ramona Shelburne
      吉娜·韦尔奇 Gina Welch
◎演  员 凯利·奥科 Kelly AuCoin
      杰基·韦佛 Jacki Weaver
      劳伦斯·菲什伯恩 Laurence Fishburne
      艾德·奥尼尔 Ed O'Neill
      杰克·托帕利安 Jack Topalian
      戴维·奥佩贝米 David Opegbemi
      Valerie Wildman Valerie Wildman
      达林·库珀 Darin Cooper
      克利欧佩特拉·科尔曼 Cleopatra Coleman
      柯宾·伯恩森 Corbin Bernsen
      里奇·索莫 Rich Sommer
      哈里特·桑塞姆·哈里斯 Harriet Sansom Harris
      弗雷德·迈拉麦德 Fred Melamed
      克里夫顿·戴维斯 Clifton Davis
      萨鲁纳斯·J·杰克逊 Sarunas J. Jackson
      J·阿方斯·尼科尔森 J. Alphonse Nicholson
      妮可·派琪 Nicole Paggi
      Austin Scott Austin Scott
      洁基·伯明翰 Gigi Bermingham
      Maria Bata Maria Bata
      詹姆斯·肖安科林 James Shanklin
      维克托·沃尔夫 Victor Wolf
      Jim Patneaude Jim Patneaude
      Carrie Madsen Carrie Madsen

◎简  介
    在这部根据 "ESPN 30 for 30 "播客《斯特林那些事儿》改编的限定剧中,老板唐纳德·斯特林(埃德·奥尼尔 Ed O'Neill 饰)暗地里录制的种族主义言论遭泄露,洛杉矶快船队主教练多克·里弗斯(劳伦斯·菲什伯恩 Laurence Fishburne 饰)正努力赢得总冠军。   《快船风云》讲述了一位声名狼藉的 NBA 老板的种族主义言论的幕后故事,这些言论被录制下来并传遍了全世界。根据热门的 "ESPN 30 for 30 "播客 "斯特林那些事儿 "改编,这部限定剧描绘了一个运转不良的篮球组织和失调的婚姻之间的碰撞,以及录音带对联盟最悲催的球队中努力争胜的一群人的影响。2013 年,著名教练多克·里弗斯来到洛杉矶快船队担任主教练,他的球队阵容强大,前途无量。球队老板唐纳德·斯特林(Donald Sterling)的问题众所周知,但如何将他的影响降到最低以赢得总冠军成了多克的夙愿。与此同时,斯特林野心勃勃的私人助理 V. Stiviano 和他妻子兼 60 年的生意伙伴 Shelly 之间的场边争权不断升级。

部分资源为软字幕,移动端推荐播放器:MxPlayer,nPlayer,infuse ,其他播放器请自行尝试。

部分资源为软字幕,电脑端推荐播放器:PotPlayer,完美解码,KMPLAYER,其他播放器请自行尝试。

下载端推荐纯BT下载软件:qBittorrent,Bitcomet,uTorrent ,其他下载软件请自行尝试。不支持吸血迅雷。

##### MediaInfo ######
General
Unique ID : 110692487065378816667072553893721899683 (0x534698F8C2CE246FBD3BDF0AE7E982A3)
Complete name : Clipped.S01E03.Let.the.Games.Begin.1080p.DSNP.WEB-DL.DDP.5.1.H.264-BlackTV.mkv
Duration : 49 min 13 s
Overall bit rate mode : Variable
Overall bit rate : 6 672 kb/s

Video
ID : 1
Format : AVC
Format/Info : Advanced Video Codec
Format profile : High@L4
Format settings : CABAC / 4 Ref Frames
Format settings, CABAC : Yes
Format settings, Reference frames : 4 frames
Codec ID : V_MPEG4/ISO/AVC
Duration : 49 min 13 s
Bit rate mode : Variable
Bit rate : 6 410 kb/s
Maximum bit rate : 12.7 Mb/s
Width : 1 920 pixels
Height : 1 080 pixels
Display aspect ratio : 16:9
Frame rate mode : Constant
Frame rate : 23.976 (24000/1001) FPS
Color space : YUV
Chroma subsampling : 4:2:0
Bit depth : 8 bits
Scan type : Progressive
Bits/(Pixel*Frame) : 0.129
Stream size : 2.20 GiB (96%)
Language : English
Default : Yes
Forced : No
Color range : Limited
Color primaries : BT.709
Transfer characteristics : BT.709
Matrix coefficients : BT.709

Audio
ID : 2
Format : E-AC-3
Format/Info : Enhanced AC-3
Commercial name : Dolby Digital Plus
Codec ID : A_EAC3
Duration : 49 min 13 s
Bit rate mode : Constant
Bit rate : 256 kb/s
Channel(s) : 6 channels
Channel layout : L R C LFE Ls Rs
Sampling rate : 48.0 kHz
Frame rate : 31.250 FPS (1536 SPF)
Compression mode : Lossy
Stream size : 90.1 MiB (4%)
Language : English
Service kind : Complete Main
Default : Yes
Forced : No

Text #1
ID : 3
Format : UTF-8
Codec ID : S_TEXT/UTF8
Codec ID/Info : UTF-8 Plain Text
Duration : 48 min 46 s
Bit rate : 94 b/s
Frame rate : 0.302 FPS
Count of elements : 884
Stream size : 33.6 KiB (0%)
Title : SDH
Language : English
Default : No
Forced : No

Text #2
ID : 4
Format : UTF-8
Codec ID : S_TEXT/UTF8
Codec ID/Info : UTF-8 Plain Text
Duration : 48 min 55 s
Bit rate : 84 b/s
Frame rate : 0.284 FPS
Count of elements : 835
Stream size : 30.4 KiB (0%)
Title : Traditional
Language : Chinese
Default : No
Forced : No

Text #3
ID : 5
Format : UTF-8
Codec ID : S_TEXT/UTF8
Codec ID/Info : UTF-8 Plain Text
Duration : 48 min 55 s
Bit rate : 74 b/s
Frame rate : 0.272 FPS
Count of elements : 799
Stream size : 26.7 KiB (0%)
Language : Czech
Default : No
Forced : No

Text #4
ID : 6
Format : UTF-8
Codec ID : S_TEXT/UTF8
Codec ID/Info : UTF-8 Plain Text
Duration : 48 min 55 s
Bit rate : 76 b/s
Frame rate : 0.278 FPS
Count of elements : 817
Stream size : 27.4 KiB (0%)
Language : Danish
Default : No
Forced : No

Text #5
ID : 7
Format : UTF-8
Codec ID : S_TEXT/UTF8
Codec ID/Info : UTF-8 Plain Text
Duration : 48 min 55 s
Bit rate : 85 b/s
Frame rate : 0.262 FPS
Count of elements : 768
Stream size : 30.7 KiB (0%)
Language : German
Default : No
Forced : No

Text #6
ID : 8
Format : UTF-8
Codec ID : S_TEXT/UTF8
Codec ID/Info : UTF-8 Plain Text
Duration : 48 min 55 s
Bit rate : 138 b/s
Frame rate : 0.270 FPS
Count of elements : 792
Stream size : 49.5 KiB (0%)
Language : Greek
Default : No
Forced : No

Text #7
ID : 9
Format : UTF-8
Codec ID : S_TEXT/UTF8
Codec ID/Info : UTF-8 Plain Text
Duration : 48 min 55 s
Bit rate : 76 b/s
Frame rate : 0.267 FPS
Count of elements : 785
Stream size : 27.4 KiB (0%)
Title : Latin America
Language : Spanish
Default : No
Forced : No

Text #8
ID : 10
Format : UTF-8
Codec ID : S_TEXT/UTF8
Codec ID/Info : UTF-8 Plain Text
Duration : 48 min 55 s
Bit rate : 76 b/s
Frame rate : 0.248 FPS
Count of elements : 728
Stream size : 27.4 KiB (0%)
Language : Spanish
Default : No
Forced : No

Text #9
ID : 11
Format : UTF-8
Codec ID : S_TEXT/UTF8
Codec ID/Info : UTF-8 Plain Text
Duration : 48 min 55 s
Bit rate : 85 b/s
Frame rate : 0.280 FPS
Count of elements : 823
Stream size : 30.6 KiB (0%)
Language : Finnish
Default : No
Forced : No

Text #10
ID : 12
Format : UTF-8
Codec ID : S_TEXT/UTF8
Codec ID/Info : UTF-8 Plain Text
Duration : 48 min 55 s
Bit rate : 82 b/s
Frame rate : 0.273 FPS
Count of elements : 802
Stream size : 29.4 KiB (0%)
Language : French
Default : No
Forced : No

Text #11
ID : 13
Format : UTF-8
Codec ID : S_TEXT/UTF8
Codec ID/Info : UTF-8 Plain Text
Duration : 48 min 55 s
Bit rate : 80 b/s
Frame rate : 0.280 FPS
Count of elements : 821
Stream size : 28.8 KiB (0%)
Language : Hungarian
Default : No
Forced : No

Text #12
ID : 14
Format : UTF-8
Codec ID : S_TEXT/UTF8
Codec ID/Info : UTF-8 Plain Text
Duration : 48 min 55 s
Bit rate : 73 b/s
Frame rate : 0.267 FPS
Count of elements : 783
Stream size : 26.4 KiB (0%)
Language : Italian
Default : No
Forced : No

Text #13
ID : 15
Format : UTF-8
Codec ID : S_TEXT/UTF8
Codec ID/Info : UTF-8 Plain Text
Duration : 48 min 52 s
Bit rate : 67 b/s
Frame rate : 0.260 FPS
Count of elements : 762
Stream size : 24.1 KiB (0%)
Language : Japanese
Default : No
Forced : No

Text #14
ID : 16
Format : UTF-8
Codec ID : S_TEXT/UTF8
Codec ID/Info : UTF-8 Plain Text
Duration : 48 min 55 s
Bit rate : 93 b/s
Frame rate : 0.281 FPS
Count of elements : 824
Stream size : 33.5 KiB (0%)
Language : Korean
Default : No
Forced : No

Text #15
ID : 17
Format : UTF-8
Codec ID : S_TEXT/UTF8
Codec ID/Info : UTF-8 Plain Text
Duration : 48 min 55 s
Bit rate : 69 b/s
Frame rate : 0.188 FPS
Count of elements : 553
Stream size : 24.8 KiB (0%)
Language : Dutch
Default : No
Forced : No

Text #16
ID : 18
Format : UTF-8
Codec ID : S_TEXT/UTF8
Codec ID/Info : UTF-8 Plain Text
Duration : 48 min 55 s
Bit rate : 69 b/s
Frame rate : 0.245 FPS
Count of elements : 720
Stream size : 24.8 KiB (0%)
Language : Norwegian
Default : No
Forced : No

Text #17
ID : 19
Format : UTF-8
Codec ID : S_TEXT/UTF8
Codec ID/Info : UTF-8 Plain Text
Duration : 48 min 55 s
Bit rate : 71 b/s
Frame rate : 0.273 FPS
Count of elements : 802
Stream size : 25.6 KiB (0%)
Language : Polish
Default : No
Forced : No

Text #18
ID : 20
Format : UTF-8
Codec ID : S_TEXT/UTF8
Codec ID/Info : UTF-8 Plain Text
Duration : 48 min 55 s
Bit rate : 74 b/s
Frame rate : 0.271 FPS
Count of elements : 796
Stream size : 26.7 KiB (0%)
Title : Brazil
Language : Portuguese
Default : No
Forced : No

Text #19
ID : 21
Format : UTF-8
Codec ID : S_TEXT/UTF8
Codec ID/Info : UTF-8 Plain Text
Duration : 48 min 55 s
Bit rate : 81 b/s
Frame rate : 0.278 FPS
Count of elements : 815
Stream size : 29.0 KiB (0%)
Language : Portuguese
Default : No
Forced : No

Text #20
ID : 22
Format : UTF-8
Codec ID : S_TEXT/UTF8
Codec ID/Info : UTF-8 Plain Text
Duration : 48 min 55 s
Bit rate : 74 b/s
Frame rate : 0.224 FPS
Count of elements : 658
Stream size : 26.7 KiB (0%)
Language : Romanian
Default : No
Forced : No

Text #21
ID : 23
Format : UTF-8
Codec ID : S_TEXT/UTF8
Codec ID/Info : UTF-8 Plain Text
Duration : 48 min 55 s
Bit rate : 75 b/s
Frame rate : 0.277 FPS
Count of elements : 814
Stream size : 27.2 KiB (0%)
Language : Slovak
Default : No
Forced : No

Text #22
ID : 24
Format : UTF-8
Codec ID : S_TEXT/UTF8
Codec ID/Info : UTF-8 Plain Text
Duration : 48 min 55 s
Bit rate : 78 b/s
Frame rate : 0.280 FPS
Count of elements : 823
Stream size : 28.2 KiB (0%)
Language : Swedish
Default : No
Forced : No

Text #23
ID : 25
Format : UTF-8
Codec ID : S_TEXT/UTF8
Codec ID/Info : UTF-8 Plain Text
Duration : 48 min 55 s
Bit rate : 80 b/s
Frame rate : 0.274 FPS
Count of elements : 803
Stream size : 28.7 KiB (0%)
Language : Turkish
Default : No
Forced : No

Menu
00:02:35.322 : en:Intro
00:02:39.868 : en:Scene 1
00:48:15.562 : en:Credits


点击图片可查看大图

软字幕无法在截图上展现,HDR版本/杜比视界版本截图会出现颜色异常,请使用支持的设备播放!



1 个附件 售价 大小 下载 时间

Clipped.S01.1080p.DSNP.WEB-DL.DDP.5.1.H.264-BlackTV[1LOU.ME].torrent 0 金币 8.21K 182 次 4天前

#1楼
发帖时间:2024-06-11 23:08:47   |   回复数:0
游客组