BILL36
隐世仙人♂

[2023] [美国] [剧情] [WEB-4K] 湮灭[全8集][简繁英字幕].Obliterated.S01.2023.2160p.NF.WEB-DL.DDP5.1.Atmos.HDR.H.265-Lelve

-->

完整标题:湮灭[全8集][简繁英字幕].Obliterated.S01.2023.2160p.NF.WEB-DL.DDP5.1.Atmos.HDR.H.265-LelveTV 56.37GB



◎标  题 湮灭
◎译  名 OBLITERATED / 醉爆特攻队
◎片  名 Obliterated
◎年  代 2023
◎产  地 美国
◎类  别 剧情 / 喜剧 / 动作
◎语  言 英语
◎IMDb评分 6.7/10 (14845人评价)
◎IMDb链接 https://www.imdb.com/title/tt11097240/
◎豆瓣评分 6.9/10 (692人评价)
◎豆瓣链接 https://movie.douban.com/subject/35950413/
◎导  演 乔尔·诺沃亚 Joel Novoa
      乔恩·赫维兹 Jon Hurwitz
      海登·施拉兹伯格 Hayden Schlossberg
      亚美莉卡·杨 America Young
      乔什·贺德 Josh Heald
◎编  剧 鲍勃·迪尔登 Bob Dearden
      乔什·贺德 Josh Heald
      乔恩·赫维兹 Jon Hurwitz
      海登·施拉兹伯格 Hayden Schlossberg
      Rachele Lynn
      Joe Piarulli
      Kate Sargeant
      Gary Tieche
      Rowan Wheeler
◎演  员 C·托马斯·豪威尔 C. Thomas Howell
      雪莱·亨尼格 Shelley Hennig
      尼克·扎诺 Nick Zano
      宝拉·拉萨罗 Paola Lázaro
      艾莉森·戈尔斯克 Alyson Gorske
      泰伦斯·特雷尔 Terrence Terrell
      基米·拉特利奇 Kimi Rutledge
      尤金·金 Eugene Kim
      坎迪斯·乔伊 Candace Joy
      卡尔·卢波利 Carl Lumbly
      伊万·格维拉 Ivan G'Vera
      科斯塔·罗宁 Costa Ronin
      尼尔·科丁斯基 Neal Kodinsky
      贾德·本德尔 Jade Bender
      罗曼·米蒂齐扬 Roman Mitichyan
      瑞恩·德昆塔尔 Ryan de Quintal
      托比亚斯·耶利内克 Tobias Jelinek
      科斯顿·约翰 Keston John
      扎克·扎戈里亚 Zach Zagoria
      蒙特尔·布什 Montel Bush
      克莱夫·斯坦登 Clive Standen
      克莱尔·斯图尔特 Kellee Stewart
      乔尔·迈克利 Joel Michaely
      布兰登·斯特西 Brandon Stacy
      马克·多尔蒂 Mark Daugherty
      马库斯·米歇尔 Marcus Mitchell
      娜奥米·格罗斯曼 Naomi Grossman
      阿马利娅·尤奥 Amalia Yoo
      凯文·肯特 Kevin Kent
      Nicole Butler Nicole Butler
      哈耶斯·哈格罗夫 Hayes Hargrove
      彼得·迪瑟 Peter Diseth
      Connor Weil Connor Weil
      米歇尔·坎贝尔 Michelle Campbell
      斯考特·拉瓦 Scott Leva
      明尼·米尔斯 Minnie Mills
      Adam Herschman
      René Mena
      苏珊娜·德拉加纳克 Susana Dragañac
      安杰丽卡·德查芙兹 Angelica DeChavez
      Jordan Morgan
      Tom Bonello
      Larry W. Bowen
      Andrei Lapionak
      Lauren Frandsen
      塔索斯·埃尔南德斯 Tasos Hernandez
      Alexander Garganera
      巴雷特·卡纳汗 Barrett Carnahan
      德沃罗·怀特 De'voreaux White
      汉斯·奥布玛 Hans Obma
      Gabriela Alicia Ortega
      Efrain Villa
      Addison Bowman
      Chase Garland
      Kelly Pendygraft
      Rob Franco
      亚历克斯·奈特 Alex Knight
      Christopher Cinquemani
      Wes Martinez
      Leon M. Brown
      Taylor Skeens
      奥利维亚 泰勒 Olivia Taylor
      Melissa Chambers
      汉克·罗杰森 Hank Rogerson
      Mark Jacobson
      Adelina Saldana
      Johann Fitch
      David DeLao
      Eric Steinig
      Astrid Devi Astrid Devi
      Bryan McGowan
      Allison Blaize
      Peter Zizzo
      Martha Magruder
      J Diego Gonçalves
      Xzavier Estrada
      Yonel Dorelis
      Michael Bonny Bassey
      Nick Ricciardi
      Denielle Fisher Johnson
      Jack Forcinito
      Landall Goolsby
      Jorge Chapa
      Harold Nieves Fisch
      Sean Patrick Bryan
      Peter Janov
      Nonoma KillsTwice
      艾迪·弗莱克 Eddie Flake
      Michael J. Sanchez
      McKenzie Scott
      B.J. Parker
      Catherine Copplestone
      Eric Guideng
      Mat Mahboub
      Kevin Young
      Christen McGrath
      Caleb Baker
      Sarah Tonin
      Jamil Kwama
      Evan Charest
      Jerome Time
      Calvin Paris
      罗莉·佩蒂 Lori Petty
      维吉妮娅·马德森 Virginia Madsen
      大卫·科斯塔贝尔 David Costabile
      琳赛·卡夫 Lindsey Kraft
      克丽斯托·梅耶斯 Crystal Mayes
      Kevin Sean Ryan
      Raven Ledesma
      Erica Steele

◎简  介
    讲述一支精英特种部队阻止了「拉斯维加斯炸弹袭击」的阴谋,在庆祝派对上花天酒地﹑吸毒享乐,然而这般放纵之后却发现他们找到的炸弹是假货。因此这群醉爆的家伙必须克服种种问题,找到真正的炸弹并拯救世界。

部分资源为软字幕,移动端推荐播放器:MxPlayer,nPlayer,infuse ,其他播放器请自行尝试。

部分资源为软字幕,电脑端推荐播放器:PotPlayer,完美解码,KMPLAYER,其他播放器请自行尝试。

##### MediaInfo ######
General
Unique ID : 336916398000652379154372019477486941296 (0xFD77BCEB5E9B4DB8C3822DEF3A2AB470)
Complete name : Obliterated.S01E01.2023.2160p.NF.WEB-DL.DDP5.1.Atmos.HDR.H.265-LelveTV.mkv
Duration : 55 min 20 s
Overall bit rate : 20.0 Mb/s

Video
ID : 1
Format : HEVC
Format/Info : High Efficiency Video Coding
Format profile : Main 10@L5@Main
HDR format : SMPTE ST 2086, HDR10 compatible
Codec ID : V_MPEGH/ISO/HEVC
Duration : 55 min 20 s
Bit rate : 19.3 Mb/s
Width : 3 840 pixels
Height : 2 160 pixels
Display aspect ratio : 16:9
Frame rate mode : Constant
Frame rate : 23.976 (24000/1001) FPS
Color space : YUV
Chroma subsampling : 4:2:0 (Type 2)
Bit depth : 10 bits
Bits/(Pixel*Frame) : 0.097
Stream size : 7.46 GiB (96%)
Default : Yes
Forced : No
Color range : Limited
Color primaries : BT.2020
Transfer characteristics : PQ
Matrix coefficients : BT.2020 non-constant
Mastering display color primaries : Display P3
Mastering display luminance : min: 0.0001 cd/m2, max: 1000 cd/m2
Maximum Content Light Level : 991 cd/m2
Maximum Frame-Average Light Level : 826 cd/m2

Audio
ID : 2
Format : E-AC-3 JOC
Format/Info : Enhanced AC-3 with Joint Object Coding
Commercial name : Dolby Digital Plus with Dolby Atmos
Codec ID : A_EAC3
Duration : 53 min 42 s
Bit rate mode : Constant
Bit rate : 768 kb/s
Channel(s) : 6 channels
Channel layout : L R C LFE Ls Rs
Sampling rate : 48.0 kHz
Frame rate : 31.250 FPS (1536 SPF)
Compression mode : Lossy
Stream size : 295 MiB (4%)
Title : English [Dolby Digital Plus with Dolby Atmos 5.1]
Language : English
Service kind : Complete Main
Default : Yes
Forced : No
Complexity index : 16
Number of dynamic objects : 15
Bed channel count : 1 channel
Bed channel configuration : LFE

Text #1
ID : 3
Format : UTF-8
Codec ID : S_TEXT/UTF8
Codec ID/Info : UTF-8 Plain Text
Duration : 52 min 56 s
Bit rate : 79 b/s
Frame rate : 0.276 FPS
Count of elements : 876
Stream size : 30.9 KiB (0%)
Title : English [SDH]
Language : English
Default : No
Forced : No

Text #2
ID : 4
Format : UTF-8
Codec ID : S_TEXT/UTF8
Codec ID/Info : UTF-8 Plain Text
Duration : 53 min 8 s
Bit rate : 69 b/s
Frame rate : 0.232 FPS
Count of elements : 741
Stream size : 26.9 KiB (0%)
Title : 中文(简体)
Language : Chinese
Default : Yes
Forced : No

Text #3
ID : 5
Format : UTF-8
Codec ID : S_TEXT/UTF8
Codec ID/Info : UTF-8 Plain Text
Duration : 52 min 39 s
Bit rate : 65 b/s
Frame rate : 0.229 FPS
Count of elements : 725
Stream size : 25.1 KiB (0%)
Title : 中文 (繁體)
Language : Chinese
Default : No
Forced : No

Text #4
ID : 6
Format : UTF-8
Codec ID : S_TEXT/UTF8
Codec ID/Info : UTF-8 Plain Text
Duration : 53 min 8 s
Bit rate : 106 b/s
Frame rate : 0.232 FPS
Count of elements : 741
Stream size : 41.5 KiB (0%)
Title : ???????
Language : Arabic
Default : No
Forced : No

Text #5
ID : 7
Format : UTF-8
Codec ID : S_TEXT/UTF8
Codec ID/Info : UTF-8 Plain Text
Duration : 51 min 6 s
Bit rate : 70 b/s
Frame rate : 0.213 FPS
Count of elements : 653
Stream size : 26.5 KiB (0%)
Title : ?e?tina
Language : Czech
Default : No
Forced : No

Text #6
ID : 8
Format : UTF-8
Codec ID : S_TEXT/UTF8
Codec ID/Info : UTF-8 Plain Text
Duration : 52 min 39 s
Bit rate : 60 b/s
Frame rate : 0.231 FPS
Count of elements : 731
Stream size : 23.4 KiB (0%)
Title : Dansk
Language : Danish
Default : No
Forced : No

Text #7
ID : 9
Format : UTF-8
Codec ID : S_TEXT/UTF8
Codec ID/Info : UTF-8 Plain Text
Duration : 52 min 39 s
Bit rate : 63 b/s
Frame rate : 0.231 FPS
Count of elements : 731
Stream size : 24.5 KiB (0%)
Title : Deutsch
Language : German
Default : No
Forced : No

Text #8
ID : 10
Format : UTF-8
Codec ID : S_TEXT/UTF8
Codec ID/Info : UTF-8 Plain Text
Duration : 52 min 39 s
Bit rate : 108 b/s
Frame rate : 0.233 FPS
Count of elements : 736
Stream size : 42.0 KiB (0%)
Title : Ελληνικ?
Language : Greek
Default : No
Forced : No

Text #9
ID : 11
Format : UTF-8
Codec ID : S_TEXT/UTF8
Codec ID/Info : UTF-8 Plain Text
Duration : 51 min 7 s
Bit rate : 77 b/s
Frame rate : 0.287 FPS
Count of elements : 880
Stream size : 29.2 KiB (0%)
Title : Espa?ol
Language : Spanish
Default : No
Forced : No

Text #10
ID : 12
Format : UTF-8
Codec ID : S_TEXT/UTF8
Codec ID/Info : UTF-8 Plain Text
Duration : 52 min 39 s
Bit rate : 63 b/s
Frame rate : 0.233 FPS
Count of elements : 735
Stream size : 24.6 KiB (0%)
Title : Espa?ol (Espa?a)
Language : Spanish
Default : No
Forced : No

Text #11
ID : 13
Format : UTF-8
Codec ID : S_TEXT/UTF8
Codec ID/Info : UTF-8 Plain Text
Duration : 52 min 39 s
Bit rate : 61 b/s
Frame rate : 0.232 FPS
Count of elements : 732
Stream size : 23.9 KiB (0%)
Title : Suomi
Language : Finnish
Default : No
Forced : No

Text #12
ID : 14
Format : UTF-8
Codec ID : S_TEXT/UTF8
Codec ID/Info : UTF-8 Plain Text
Duration : 52 min 39 s
Bit rate : 59 b/s
Frame rate : 0.224 FPS
Count of elements : 709
Stream size : 22.9 KiB (0%)
Title : Suomi (Israel)
Language : Finnish
Default : No
Forced : No

Text #13
ID : 15
Format : UTF-8
Codec ID : S_TEXT/UTF8
Codec ID/Info : UTF-8 Plain Text
Duration : 52 min 39 s
Bit rate : 63 b/s
Frame rate : 0.230 FPS
Count of elements : 726
Stream size : 24.5 KiB (0%)
Title : Fran?ais
Language : French
Default : No
Forced : No

Text #14
ID : 16
Format : UTF-8
Codec ID : S_TEXT/UTF8
Codec ID/Info : UTF-8 Plain Text
Duration : 53 min 8 s
Bit rate : 102 b/s
Frame rate : 0.232 FPS
Count of elements : 741
Stream size : 39.8 KiB (0%)
Title : ?????
Language : Hebrew
Default : No
Forced : No

Text #15
ID : 17
Format : UTF-8
Codec ID : S_TEXT/UTF8
Codec ID/Info : UTF-8 Plain Text
Duration : 52 min 39 s
Bit rate : 56 b/s
Frame rate : 0.231 FPS
Count of elements : 730
Stream size : 21.9 KiB (0%)
Title : Hrvatski
Language : Croatian
Default : No
Forced : No

Text #16
ID : 18
Format : UTF-8
Codec ID : S_TEXT/UTF8
Codec ID/Info : UTF-8 Plain Text
Duration : 52 min 39 s
Bit rate : 63 b/s
Frame rate : 0.233 FPS
Count of elements : 735
Stream size : 24.6 KiB (0%)
Title : Magyar
Language : Hungarian
Default : No
Forced : No

Text #17
ID : 19
Format : UTF-8
Codec ID : S_TEXT/UTF8
Codec ID/Info : UTF-8 Plain Text
Duration : 52 min 39 s
Bit rate : 64 b/s
Frame rate : 0.232 FPS
Count of elements : 733
Stream size : 24.7 KiB (0%)
Title : Bahasa Indonesia
Language : Indonesian
Default : No
Forced : No

Text #18
ID : 20
Format : UTF-8
Codec ID : S_TEXT/UTF8
Codec ID/Info : UTF-8 Plain Text
Duration : 52 min 39 s
Bit rate : 62 b/s
Frame rate : 0.232 FPS
Count of elements : 733
Stream size : 24.1 KiB (0%)
Title : Italiano
Language : Italian
Default : No
Forced : No

Text #19
ID : 21
Format : UTF-8
Codec ID : S_TEXT/UTF8
Codec ID/Info : UTF-8 Plain Text
Duration : 52 min 39 s
Bit rate : 61 b/s
Frame rate : 0.276 FPS
Count of elements : 872
Stream size : 23.6 KiB (0%)
Title : 日本語
Language : Japanese
Default : No
Forced : No

Text #20
ID : 22
Format : UTF-8
Codec ID : S_TEXT/UTF8
Codec ID/Info : UTF-8 Plain Text
Duration : 53 min 8 s
Bit rate : 70 b/s
Frame rate : 0.231 FPS
Count of elements : 736
Stream size : 27.6 KiB (0%)
Title : ???
Language : Korean
Default : No
Forced : No

Text #21
ID : 23
Format : UTF-8
Codec ID : S_TEXT/UTF8
Codec ID/Info : UTF-8 Plain Text
Duration : 52 min 39 s
Bit rate : 61 b/s
Frame rate : 0.232 FPS
Count of elements : 734
Stream size : 23.8 KiB (0%)
Title : Bahasa Malaysia
Language : Malay
Default : No
Forced : No

Text #22
ID : 24
Format : UTF-8
Codec ID : S_TEXT/UTF8
Codec ID/Info : UTF-8 Plain Text
Duration : 52 min 39 s
Bit rate : 63 b/s
Frame rate : 0.232 FPS
Count of elements : 734
Stream size : 24.6 KiB (0%)
Title : Norsk Bokm?l
Language : Norwegian Bokmal
Default : No
Forced : No

Text #23
ID : 25
Format : UTF-8
Codec ID : S_TEXT/UTF8
Codec ID/Info : UTF-8 Plain Text
Duration : 52 min 39 s
Bit rate : 61 b/s
Frame rate : 0.230 FPS
Count of elements : 728
Stream size : 23.6 KiB (0%)
Title : Nederlands
Language : Dutch
Default : No
Forced : No

Text #24
ID : 26
Format : UTF-8
Codec ID : S_TEXT/UTF8
Codec ID/Info : UTF-8 Plain Text
Duration : 52 min 39 s
Bit rate : 57 b/s
Frame rate : 0.233 FPS
Count of elements : 735
Stream size : 22.0 KiB (0%)
Title : Polski
Language : Polish
Default : No
Forced : No

Text #25
ID : 27
Format : UTF-8
Codec ID : S_TEXT/UTF8
Codec ID/Info : UTF-8 Plain Text
Duration : 52 min 39 s
Bit rate : 64 b/s
Frame rate : 0.228 FPS
Count of elements : 720
Stream size : 24.9 KiB (0%)
Title : Português
Language : Portuguese
Default : No
Forced : No

Text #26
ID : 28
Format : UTF-8
Codec ID : S_TEXT/UTF8
Codec ID/Info : UTF-8 Plain Text
Duration : 51 min 6 s
Bit rate : 74 b/s
Frame rate : 0.254 FPS
Count of elements : 778
Stream size : 28.0 KiB (0%)
Title : Português (Brasil)
Language : Portuguese
Default : No
Forced : No

Text #27
ID : 29
Format : UTF-8
Codec ID : S_TEXT/UTF8
Codec ID/Info : UTF-8 Plain Text
Duration : 52 min 39 s
Bit rate : 67 b/s
Frame rate : 0.233 FPS
Count of elements : 735
Stream size : 26.2 KiB (0%)
Title : Roman?
Language : Romanian
Default : No
Forced : No

Text #28
ID : 30
Format : UTF-8
Codec ID : S_TEXT/UTF8
Codec ID/Info : UTF-8 Plain Text
Duration : 53 min 8 s
Bit rate : 109 b/s
Frame rate : 0.227 FPS
Count of elements : 723
Stream size : 42.6 KiB (0%)
Title : Русский
Language : Russian
Default : No
Forced : No

Text #29
ID : 31
Format : UTF-8
Codec ID : S_TEXT/UTF8
Codec ID/Info : UTF-8 Plain Text
Duration : 52 min 39 s
Bit rate : 63 b/s
Frame rate : 0.232 FPS
Count of elements : 732
Stream size : 24.5 KiB (0%)
Title : Svenska
Language : Swedish
Default : No
Forced : No

Text #30
ID : 32
Format : UTF-8
Codec ID : S_TEXT/UTF8
Codec ID/Info : UTF-8 Plain Text
Duration : 53 min 8 s
Bit rate : 155 b/s
Frame rate : 0.232 FPS
Count of elements : 741
Stream size : 60.4 KiB (0%)
Title : ???
Language : Thai
Default : No
Forced : No

Text #31
ID : 33
Format : UTF-8
Codec ID : S_TEXT/UTF8
Codec ID/Info : UTF-8 Plain Text
Duration : 52 min 39 s
Bit rate : 65 b/s
Frame rate : 0.232 FPS
Count of elements : 734
Stream size : 25.2 KiB (0%)
Title : Türk?e
Language : Turkish
Default : No
Forced : No

Text #32
ID : 34
Format : UTF-8
Codec ID : S_TEXT/UTF8
Codec ID/Info : UTF-8 Plain Text
Duration : 53 min 8 s
Bit rate : 113 b/s
Frame rate : 0.232 FPS
Count of elements : 741
Stream size : 44.4 KiB (0%)
Title : Укра?нська
Language : Ukrainian
Default : No
Forced : No

Text #33
ID : 35
Format : UTF-8
Codec ID : S_TEXT/UTF8
Codec ID/Info : UTF-8 Plain Text
Duration : 52 min 39 s
Bit rate : 83 b/s
Frame rate : 0.233 FPS
Count of elements : 735
Stream size : 32.2 KiB (0%)
Title : Ti?ng Vi?t
Language : Vietnamese
Default : No
Forced : No

Menu
00:00:00.000 : en:Part 01
00:52:11.000 : en:Credits


点击图片可查看大图

软字幕无法在截图上展现,HDR版本/杜比视界版本截图会出现颜色异常,请使用支持的设备播放!



1 个附件 售价 大小 下载 时间

Obliterated.S01.2023.2160p.NF.WEB-DL.DDP5.1.Atmos.HDR.H.265-LelveTV[1LOU.ME].torrent 0 金币 144.59K 889 次 1月前

#1楼
发帖时间:2024-02-28 10:25:18   |   回复数:0
游客组