BILL36
隐世仙人♂

[2020] [大陆] [动画] [WEB-4K] 武神主宰[HDR/杜比视界双版本][全8集][国英多音轨/简繁英字幕].2023.2160p.NF.WEB-DL.DDP5.1.Atmos.DV.HDR.H.2

-->

完整标题:武神主宰[HDR/杜比视界双版本][全8集][国英多音轨/简繁英字幕].2023.2160p.NF.WEB-DL.DDP5.1.Atmos.DV.HDR.H.265-LelveTV 64.52GB



◎标  题 武神主宰
◎译  名 The God of War Dominates / Martial Master
◎年  代 2020
◎产  地 中国大陆
◎类  别 动画
◎语  言 汉语普通话
◎IMDb链接 https://www.imdb.com/title//
◎豆瓣评分 5.6/10 (1158人评价)
◎豆瓣链接 https://movie.douban.com/subject/34995687/
◎演  员 许子尧 Ziyao Xu
      唐泽宗 Zezong Tang
      陈帅 Shuai Chen
      吴凡 Fan Wu
      孙科 Ke Sun

◎简  介
    主角秦尘本是武域中最顶尖的天才强者,却遭歹人暗算,陨落大陆禁地死亡峡谷。必死无疑的秦尘,却意外触发神秘古剑的力量…… 三百年后,天武大陆偏僻之地,一位同名少年意外继承了秦尘的意志。作为大齐国军神定武王的爱孙,却因生父来历成迷,母子二人在定武王府中受尽冷遇,相依为命。 为了重写望日的强者神话,也为了守护自己所爱的一切,秦尘毅然决然扛起维护天下五国的大任,再度踏上武道之路。

部分资源为软字幕,移动端推荐播放器:MxPlayer,nPlayer,infuse ,其他播放器请自行尝试。

部分资源为软字幕,电脑端推荐播放器:PotPlayer,完美解码,KMPLAYER,其他播放器请自行尝试。

##### MediaInfo ######
General
Unique ID : 51214730702366418126057547991696458832 (0x2687992D2909CE99BB3DF860B512C450)
Complete name : One.Piece.S01E01.2023.2160p.NF.WEB-DL.DDP5.1.Atmos.DV.HDR.H.265-LelveTV.mkv
Duration : 1 h 5 min
Overall bit rate : 19.4 Mb/s

Video
ID : 1
Format : HEVC
Format/Info : High Efficiency Video Coding
Format profile : Main 10@L5@Main
HDR format : Dolby Vision, Version 1.0, dvhe.08.06, BL+RPU, HDR10 compatible / SMPTE ST 2086, HDR10 compatible
Codec ID : V_MPEGH/ISO/HEVC
Duration : 1 h 5 min
Bit rate : 17.9 Mb/s
Width : 3 840 pixels
Height : 2 160 pixels
Display aspect ratio : 16:9
Frame rate mode : Constant
Frame rate : 23.976 (24000/1001) FPS
Color space : YUV
Chroma subsampling : 4:2:0 (Type 2)
Bit depth : 10 bits
Bits/(Pixel*Frame) : 0.090
Stream size : 8.19 GiB (93%)
Default : Yes
Forced : No
Color range : Limited
Color primaries : BT.2020
Transfer characteristics : PQ
Matrix coefficients : BT.2020 non-constant
Mastering display color primaries : Display P3
Mastering display luminance : min: 0.0001 cd/m2, max: 1000 cd/m2
Maximum Content Light Level : 104 cd/m2
Maximum Frame-Average Light Level : 93 cd/m2

Audio #1
ID : 2
Format : E-AC-3 JOC
Format/Info : Enhanced AC-3 with Joint Object Coding
Commercial name : Dolby Digital Plus with Dolby Atmos
Codec ID : A_EAC3
Duration : 1 h 5 min
Bit rate mode : Constant
Bit rate : 768 kb/s
Channel(s) : 6 channels
Channel layout : L R C LFE Ls Rs
Sampling rate : 48.0 kHz
Frame rate : 31.250 FPS (1536 SPF)
Compression mode : Lossy
Stream size : 359 MiB (4%)
Title : English [Dolby Digital Plus with Dolby Atmos 5.1]
Language : English
Service kind : Complete Main
Default : Yes
Forced : No
Complexity index : 16
Number of dynamic objects : 15
Bed channel count : 1 channel
Bed channel configuration : LFE

Audio #2
ID : 3
Format : E-AC-3
Format/Info : Enhanced AC-3
Commercial name : Dolby Digital Plus
Codec ID : A_EAC3
Duration : 1 h 5 min
Bit rate mode : Constant
Bit rate : 640 kb/s
Channel(s) : 6 channels
Channel layout : L R C LFE Ls Rs
Sampling rate : 48.0 kHz
Frame rate : 31.250 FPS (1536 SPF)
Compression mode : Lossy
Stream size : 299 MiB (3%)
Title : Chinese (Taiwan) [Dolby Digital Plus 5.1]
Language : Chinese
Service kind : Complete Main
Default : No
Forced : No

Text #1
ID : 4
Format : UTF-8
Codec ID : S_TEXT/UTF8
Codec ID/Info : UTF-8 Plain Text
Duration : 59 min 12 s
Bit rate : 55 b/s
Frame rate : 0.247 FPS
Count of elements : 876
Stream size : 24.3 KiB (0%)
Title : English [SDH]
Language : English
Default : No
Forced : No

Text #2
ID : 5
Format : UTF-8
Codec ID : S_TEXT/UTF8
Codec ID/Info : UTF-8 Plain Text
Duration : 1 h 1 min
Bit rate : 42 b/s
Frame rate : 0.171 FPS
Count of elements : 636
Stream size : 19.1 KiB (0%)
Title : 中文(简体)
Language : Chinese
Default : Yes
Forced : No

Text #3
ID : 6
Format : UTF-8
Codec ID : S_TEXT/UTF8
Codec ID/Info : UTF-8 Plain Text
Duration : 59 min 5 s
Bit rate : 44 b/s
Frame rate : 0.187 FPS
Count of elements : 662
Stream size : 19.1 KiB (0%)
Title : 中文 (繁體)
Language : Chinese
Default : No
Forced : No

Text #4
ID : 7
Format : UTF-8
Codec ID : S_TEXT/UTF8
Codec ID/Info : UTF-8 Plain Text
Duration : 1 h 1 min
Bit rate : 77 b/s
Frame rate : 0.184 FPS
Count of elements : 683
Stream size : 35.3 KiB (0%)
Title : ???????
Language : Arabic
Default : No
Forced : No

Text #5
ID : 8
Format : UTF-8
Codec ID : S_TEXT/UTF8
Codec ID/Info : UTF-8 Plain Text
Duration : 1 h 1 min
Bit rate : 40 b/s
Frame rate : 0.171 FPS
Count of elements : 635
Stream size : 18.4 KiB (0%)
Title : Català
Language : Catalan
Default : No
Forced : No

Text #6
ID : 9
Format : UTF-8
Codec ID : S_TEXT/UTF8
Codec ID/Info : UTF-8 Plain Text
Duration : 59 min 5 s
Bit rate : 43 b/s
Frame rate : 0.129 FPS
Count of elements : 457
Stream size : 18.8 KiB (0%)
Title : ?e?tina
Language : Czech
Default : No
Forced : No

Text #7
ID : 10
Format : UTF-8
Codec ID : S_TEXT/UTF8
Codec ID/Info : UTF-8 Plain Text
Duration : 1 h 1 min
Bit rate : 39 b/s
Frame rate : 0.163 FPS
Count of elements : 606
Stream size : 18.0 KiB (0%)
Title : Dansk
Language : Danish
Default : No
Forced : No

Text #8
ID : 11
Format : UTF-8
Codec ID : S_TEXT/UTF8
Codec ID/Info : UTF-8 Plain Text
Duration : 1 h 1 min
Bit rate : 41 b/s
Frame rate : 0.179 FPS
Count of elements : 665
Stream size : 18.6 KiB (0%)
Title : Deutsch
Language : German
Default : No
Forced : No

Text #9
ID : 12
Format : UTF-8
Codec ID : S_TEXT/UTF8
Codec ID/Info : UTF-8 Plain Text
Duration : 59 min 5 s
Bit rate : 88 b/s
Frame rate : 0.143 FPS
Count of elements : 508
Stream size : 38.5 KiB (0%)
Title : Ελληνικ?
Language : Greek
Default : No
Forced : No

Text #10
ID : 13
Format : UTF-8
Codec ID : S_TEXT/UTF8
Codec ID/Info : UTF-8 Plain Text
Duration : 59 min 5 s
Bit rate : 49 b/s
Frame rate : 0.222 FPS
Count of elements : 787
Stream size : 21.4 KiB (0%)
Title : Espa?ol
Language : Spanish
Default : No
Forced : No

Text #11
ID : 14
Format : UTF-8
Codec ID : S_TEXT/UTF8
Codec ID/Info : UTF-8 Plain Text
Duration : 1 h 1 min
Bit rate : 39 b/s
Frame rate : 0.183 FPS
Count of elements : 678
Stream size : 18.1 KiB (0%)
Title : Espa?ol (Espa?a)
Language : Spanish
Default : No
Forced : No

Text #12
ID : 15
Format : UTF-8
Codec ID : S_TEXT/UTF8
Codec ID/Info : UTF-8 Plain Text
Duration : 1 h 1 min
Bit rate : 40 b/s
Frame rate : 0.172 FPS
Count of elements : 638
Stream size : 18.5 KiB (0%)
Title : Euskara
Language : Basque
Default : No
Forced : No

Text #13
ID : 16
Format : UTF-8
Codec ID : S_TEXT/UTF8
Codec ID/Info : UTF-8 Plain Text
Duration : 1 h 1 min
Bit rate : 39 b/s
Frame rate : 0.143 FPS
Count of elements : 531
Stream size : 18.0 KiB (0%)
Title : Suomi
Language : Finnish
Default : No
Forced : No

Text #14
ID : 17
Format : UTF-8
Codec ID : S_TEXT/UTF8
Codec ID/Info : UTF-8 Plain Text
Duration : 1 h 1 min
Bit rate : 44 b/s
Frame rate : 0.170 FPS
Count of elements : 630
Stream size : 20.2 KiB (0%)
Title : Suomi (Israel)
Language : Finnish
Default : No
Forced : No

Text #15
ID : 18
Format : UTF-8
Codec ID : S_TEXT/UTF8
Codec ID/Info : UTF-8 Plain Text
Duration : 1 h 1 min
Bit rate : 42 b/s
Frame rate : 0.168 FPS
Count of elements : 622
Stream size : 19.2 KiB (0%)
Title : Fran?ais
Language : French
Default : No
Forced : No

Text #16
ID : 19
Format : UTF-8
Codec ID : S_TEXT/UTF8
Codec ID/Info : UTF-8 Plain Text
Duration : 1 h 1 min
Bit rate : 40 b/s
Frame rate : 0.171 FPS
Count of elements : 635
Stream size : 18.4 KiB (0%)
Title : Galego
Language : Galician
Default : No
Forced : No

Text #17
ID : 20
Format : UTF-8
Codec ID : S_TEXT/UTF8
Codec ID/Info : UTF-8 Plain Text
Duration : 59 min 5 s
Bit rate : 73 b/s
Frame rate : 0.178 FPS
Count of elements : 632
Stream size : 32.0 KiB (0%)
Title : ?????
Language : Hebrew
Default : No
Forced : No

Text #18
ID : 21
Format : UTF-8
Codec ID : S_TEXT/UTF8
Codec ID/Info : UTF-8 Plain Text
Duration : 1 h 1 min
Bit rate : 38 b/s
Frame rate : 0.171 FPS
Count of elements : 633
Stream size : 17.3 KiB (0%)
Title : Hrvatski
Language : Croatian
Default : No
Forced : No

Text #19
ID : 22
Format : UTF-8
Codec ID : S_TEXT/UTF8
Codec ID/Info : UTF-8 Plain Text
Duration : 1 h 1 min
Bit rate : 41 b/s
Frame rate : 0.165 FPS
Count of elements : 613
Stream size : 18.7 KiB (0%)
Title : Magyar
Language : Hungarian
Default : No
Forced : No

Text #20
ID : 23
Format : UTF-8
Codec ID : S_TEXT/UTF8
Codec ID/Info : UTF-8 Plain Text
Duration : 1 h 1 min
Bit rate : 39 b/s
Frame rate : 0.172 FPS
Count of elements : 639
Stream size : 18.0 KiB (0%)
Title : Bahasa Indonesia
Language : Indonesian
Default : No
Forced : No

Text #21
ID : 24
Format : UTF-8
Codec ID : S_TEXT/UTF8
Codec ID/Info : UTF-8 Plain Text
Duration : 1 h 1 min
Bit rate : 43 b/s
Frame rate : 0.167 FPS
Count of elements : 619
Stream size : 19.6 KiB (0%)
Title : Italiano
Language : Italian
Default : No
Forced : No

Text #22
ID : 25
Format : UTF-8
Codec ID : S_TEXT/UTF8
Codec ID/Info : UTF-8 Plain Text
Duration : 1 h 1 min
Bit rate : 41 b/s
Frame rate : 0.194 FPS
Count of elements : 719
Stream size : 18.7 KiB (0%)
Title : 日本語
Language : Japanese
Default : No
Forced : No

Text #23
ID : 26
Format : UTF-8
Codec ID : S_TEXT/UTF8
Codec ID/Info : UTF-8 Plain Text
Duration : 1 h 1 min
Bit rate : 49 b/s
Frame rate : 0.182 FPS
Count of elements : 676
Stream size : 22.4 KiB (0%)
Title : ???
Language : Korean
Default : No
Forced : No

Text #24
ID : 27
Format : UTF-8
Codec ID : S_TEXT/UTF8
Codec ID/Info : UTF-8 Plain Text
Duration : 1 h 1 min
Bit rate : 38 b/s
Frame rate : 0.169 FPS
Count of elements : 627
Stream size : 17.5 KiB (0%)
Title : Bahasa Malaysia
Language : Malay
Default : No
Forced : No

Text #25
ID : 28
Format : UTF-8
Codec ID : S_TEXT/UTF8
Codec ID/Info : UTF-8 Plain Text
Duration : 1 h 1 min
Bit rate : 39 b/s
Frame rate : 0.165 FPS
Count of elements : 613
Stream size : 17.8 KiB (0%)
Title : Norsk Bokm?l
Language : Norwegian Bokmal
Default : No
Forced : No

Text #26
ID : 29
Format : UTF-8
Codec ID : S_TEXT/UTF8
Codec ID/Info : UTF-8 Plain Text
Duration : 59 min 5 s
Bit rate : 44 b/s
Frame rate : 0.167 FPS
Count of elements : 593
Stream size : 19.2 KiB (0%)
Title : Nederlands
Language : Dutch
Default : No
Forced : No

Text #27
ID : 30
Format : UTF-8
Codec ID : S_TEXT/UTF8
Codec ID/Info : UTF-8 Plain Text
Duration : 1 h 1 min
Bit rate : 39 b/s
Frame rate : 0.170 FPS
Count of elements : 631
Stream size : 17.7 KiB (0%)
Title : Polski
Language : Polish
Default : No
Forced : No

Text #28
ID : 31
Format : UTF-8
Codec ID : S_TEXT/UTF8
Codec ID/Info : UTF-8 Plain Text
Duration : 59 min 5 s
Bit rate : 51 b/s
Frame rate : 0.142 FPS
Count of elements : 504
Stream size : 22.3 KiB (0%)
Title : Português
Language : Portuguese
Default : No
Forced : No

Text #29
ID : 32
Format : UTF-8
Codec ID : S_TEXT/UTF8
Codec ID/Info : UTF-8 Plain Text
Duration : 59 min 5 s
Bit rate : 51 b/s
Frame rate : 0.216 FPS
Count of elements : 765
Stream size : 22.4 KiB (0%)
Title : Português (Brasil)
Language : Portuguese
Default : No
Forced : No

Text #30
ID : 33
Format : UTF-8
Codec ID : S_TEXT/UTF8
Codec ID/Info : UTF-8 Plain Text
Duration : 1 h 1 min
Bit rate : 40 b/s
Frame rate : 0.171 FPS
Count of elements : 636
Stream size : 18.3 KiB (0%)
Title : Roman?
Language : Romanian
Default : No
Forced : No

Text #31
ID : 34
Format : UTF-8
Codec ID : S_TEXT/UTF8
Codec ID/Info : UTF-8 Plain Text
Duration : 1 h 1 min
Bit rate : 65 b/s
Frame rate : 0.172 FPS
Count of elements : 639
Stream size : 29.5 KiB (0%)
Title : Русский
Language : Russian
Default : No
Forced : No

Text #32
ID : 35
Format : UTF-8
Codec ID : S_TEXT/UTF8
Codec ID/Info : UTF-8 Plain Text
Duration : 1 h 1 min
Bit rate : 42 b/s
Frame rate : 0.147 FPS
Count of elements : 545
Stream size : 19.4 KiB (0%)
Title : Svenska
Language : Swedish
Default : No
Forced : No

Text #33
ID : 36
Format : UTF-8
Codec ID : S_TEXT/UTF8
Codec ID/Info : UTF-8 Plain Text
Duration : 1 h 1 min
Bit rate : 107 b/s
Frame rate : 0.171 FPS
Count of elements : 634
Stream size : 48.8 KiB (0%)
Title : ???
Language : Thai
Default : No
Forced : No

Text #34
ID : 37
Format : UTF-8
Codec ID : S_TEXT/UTF8
Codec ID/Info : UTF-8 Plain Text
Duration : 1 h 1 min
Bit rate : 43 b/s
Frame rate : 0.167 FPS
Count of elements : 620
Stream size : 19.5 KiB (0%)
Title : Türk?e
Language : Turkish
Default : No
Forced : No

Text #35
ID : 38
Format : UTF-8
Codec ID : S_TEXT/UTF8
Codec ID/Info : UTF-8 Plain Text
Duration : 1 h 1 min
Bit rate : 65 b/s
Frame rate : 0.172 FPS
Count of elements : 637
Stream size : 29.6 KiB (0%)
Title : Укра?нська
Language : Ukrainian
Default : No
Forced : No

Text #36
ID : 39
Format : UTF-8
Codec ID : S_TEXT/UTF8
Codec ID/Info : UTF-8 Plain Text
Duration : 1 h 1 min
Bit rate : 58 b/s
Frame rate : 0.172 FPS
Count of elements : 637
Stream size : 26.5 KiB (0%)
Title : Ti?ng Vi?t
Language : Vietnamese
Default : No
Forced : No

Menu
00:00:00.000 : en:Part 01
00:59:17.000 : en:Credits


点击图片可查看大图

软字幕无法在截图上展现,HDR版本/杜比视界版本截图会出现颜色异常,请使用支持的设备播放!



1 个附件 售价 大小 下载 时间

2023.2160p.NF.WEB-DL.DDP5.1.Atmos.DV.HDR.H.265-LelveTV[1LOU.ME].torrent 0 金币 165.01K 399 次 1月前

#1楼
发帖时间:2024-02-28 10:29:41   |   回复数:0
游客组