BILL36
隐世仙人♂

[2024] [韩国] [惊悚] [WEB-1080P] 遗赠的秘密[全6集][简繁英字幕].The.Bequeathed.S01.2024.1080p.NF.WEB-DL.DDP5.1.Atmos.H264-Lelv

-->

完整标题:遗赠的秘密[全6集][简繁英字幕].The.Bequeathed.S01.2024.1080p.NF.WEB-DL.DDP5.1.Atmos.H264-LelveTV 11.29GB



◎标  题 遗赠的秘密
◎译  名 遗产 / 先山 / The Bequeathed
◎片  名 선산
◎年  代 2024
◎产  地 韩国
◎类  别 惊悚
◎语  言 韩语
◎IMDb评分 5.4/10 (10人评价)
◎IMDb链接 https://www.imdb.com/title/tt28225048/
◎豆瓣链接 https://movie.douban.com/subject/36098557/
◎导  演 延尚昊 Sang-ho Yeon
      闵洪南 Hong-nam Min
◎编  剧 延尚昊 Sang-ho Yeon
◎演  员 金贤珠 Hyun-joo Kim
      朴熹洵 Hee soon Park
      朴炳垠 Byung-eun Park
      刘庆秀 Ryoo Kyung-soo

◎简  介
    一名女子在一位陌生的叔叔去世后继承了一块墓地,并发现自己走入了一连串谋杀案和黑暗秘密的中心。

部分资源为软字幕,移动端推荐播放器:MxPlayer,nPlayer,infuse ,其他播放器请自行尝试。

部分资源为软字幕,电脑端推荐播放器:PotPlayer,完美解码,KMPLAYER,其他播放器请自行尝试。

##### MediaInfo ######
General
Unique ID : 23825056462315335513411016774809448040 (0x11EC89F9B990784146280CBCC9026E68)
Complete name : The.Bequeathed.S01E01.2024.1080p.NF.WEB-DL.DDP5.1.Atmos.H264-LelveTV.mkv
Duration : 56 min 2 s
Overall bit rate mode : Variable
Overall bit rate : 5 459 kb/s

Video
ID : 1
Format : AVC
Format/Info : Advanced Video Codec
Format profile : Main@L4
Format settings : CABAC / 3 Ref Frames
Format settings, CABAC : Yes
Format settings, Reference frames : 3 frames
Codec ID : V_MPEG4/ISO/AVC
Duration : 56 min 2 s
Bit rate mode : Variable
Bit rate : 4 686 kb/s
Nominal bit rate : 5 000 kb/s
Maximum bit rate : 7 500 kb/s
Width : 1 920 pixels
Height : 1 080 pixels
Display aspect ratio : 16:9
Frame rate mode : Constant
Frame rate : 23.976 (24000/1001) FPS
Color space : YUV
Chroma subsampling : 4:2:0
Bit depth : 8 bits
Scan type : Progressive
Bits/(Pixel*Frame) : 0.094
Stream size : 1.83 GiB (86%)
Writing library : x264 core 148 r2727 7d026e8
Encoding settings : cabac=1 / ref=3 / deblock=1:0:0 / analyse=0x1:0x111 / me=umh / subme=10 / psy=1 / psy_rd=1.00:0.00 / mixed_ref=1 / me_range=24 / chroma_me=1 / trellis=2 / 8x8dct=0 / cqm=0 / deadzone=21,11 / fast_pskip=1 / chroma_qp_offset=-2 / threads=6 / lookahead_threads=1 / sliced_threads=0 / nr=0 / decimate=1 / interlaced=0 / bluray_compat=0 / stitchable=1 / constrained_intra=0 / bframes=2 / b_pyramid=0 / b_adapt=2 / b_bias=0 / direct=3 / weightb=1 / open_gop=0 / weightp=2 / keyint=240 / keyint_min=121 / scenecut=0 / intra_refresh=0 / rc_lookahead=48 / rc=2pass / mbtree=1 / bitrate=5000 / ratetol=1.0 / qcomp=0.50 / qpmin=6 / qpmax=51 / qpstep=4 / cplxblur=20.0 / qblur=0.5 / vbv_maxrate=7500 / vbv_bufsize=10000 / nal_hrd=vbr / filler=0 / ip_ratio=1.40 / aq=1:1.00
Default : Yes
Forced : No

Audio
ID : 2
Format : E-AC-3 JOC
Format/Info : Enhanced AC-3 with Joint Object Coding
Commercial name : Dolby Digital Plus with Dolby Atmos
Codec ID : A_EAC3
Duration : 56 min 2 s
Bit rate mode : Constant
Bit rate : 768 kb/s
Channel(s) : 6 channels
Channel layout : L R C LFE Ls Rs
Sampling rate : 48.0 kHz
Frame rate : 31.250 FPS (1536 SPF)
Compression mode : Lossy
Stream size : 308 MiB (14%)
Title : ??? [Dolby Digital Plus with Dolby Atmos 5.1]
Language : Korean
Service kind : Complete Main
Default : Yes
Forced : No
Complexity index : 16
Number of dynamic objects : 15
Bed channel count : 1 channel
Bed channel configuration : LFE

Text #1
ID : 3
Format : UTF-8
Codec ID : S_TEXT/UTF8
Codec ID/Info : UTF-8 Plain Text
Duration : 51 min 56 s
Bit rate : 96 b/s
Frame rate : 0.322 FPS
Count of elements : 1004
Stream size : 36.7 KiB (0%)
Title : ??? [SDH]
Language : Korean
Default : No
Forced : No

Text #2
ID : 4
Format : UTF-8
Codec ID : S_TEXT/UTF8
Codec ID/Info : UTF-8 Plain Text
Duration : 54 min 10 s
Bit rate : 44 b/s
Frame rate : 0.187 FPS
Count of elements : 608
Stream size : 17.7 KiB (0%)
Title : 中文(简体)
Language : Chinese
Default : Yes
Forced : No

Text #3
ID : 5
Format : UTF-8
Codec ID : S_TEXT/UTF8
Codec ID/Info : UTF-8 Plain Text
Duration : 54 min 10 s
Bit rate : 41 b/s
Frame rate : 0.188 FPS
Count of elements : 612
Stream size : 16.3 KiB (0%)
Title : 中文 (繁體)
Language : Chinese
Default : No
Forced : No

Text #4
ID : 6
Format : UTF-8
Codec ID : S_TEXT/UTF8
Codec ID/Info : UTF-8 Plain Text
Duration : 54 min 10 s
Bit rate : 82 b/s
Frame rate : 0.187 FPS
Count of elements : 608
Stream size : 32.9 KiB (0%)
Title : ???????
Language : Arabic
Default : No
Forced : No

Text #5
ID : 7
Format : UTF-8
Codec ID : S_TEXT/UTF8
Codec ID/Info : UTF-8 Plain Text
Duration : 50 min 53 s
Bit rate : 48 b/s
Frame rate : 0.195 FPS
Count of elements : 596
Stream size : 18.0 KiB (0%)
Title : ?e?tina
Language : Czech
Default : No
Forced : No

Text #6
ID : 8
Format : UTF-8
Codec ID : S_TEXT/UTF8
Codec ID/Info : UTF-8 Plain Text
Duration : 54 min 10 s
Bit rate : 45 b/s
Frame rate : 0.182 FPS
Count of elements : 591
Stream size : 17.9 KiB (0%)
Title : Dansk
Language : Danish
Default : No
Forced : No

Text #7
ID : 9
Format : UTF-8
Codec ID : S_TEXT/UTF8
Codec ID/Info : UTF-8 Plain Text
Duration : 50 min 53 s
Bit rate : 53 b/s
Frame rate : 0.189 FPS
Count of elements : 576
Stream size : 20.1 KiB (0%)
Title : Deutsch
Language : German
Default : No
Forced : No

Text #8
ID : 10
Format : UTF-8
Codec ID : S_TEXT/UTF8
Codec ID/Info : UTF-8 Plain Text
Duration : 54 min 10 s
Bit rate : 79 b/s
Frame rate : 0.185 FPS
Count of elements : 600
Stream size : 31.7 KiB (0%)
Title : Ελληνικ?
Language : Greek
Default : No
Forced : No

Text #9
ID : 11
Format : UTF-8
Codec ID : S_TEXT/UTF8
Codec ID/Info : UTF-8 Plain Text
Duration : 50 min 53 s
Bit rate : 61 b/s
Frame rate : 0.214 FPS
Count of elements : 655
Stream size : 22.9 KiB (0%)
Title : English
Language : English
Default : No
Forced : No

Text #10
ID : 12
Format : UTF-8
Codec ID : S_TEXT/UTF8
Codec ID/Info : UTF-8 Plain Text
Duration : 54 min 10 s
Bit rate : 47 b/s
Frame rate : 0.189 FPS
Count of elements : 613
Stream size : 18.7 KiB (0%)
Title : Espa?ol
Language : Spanish
Default : No
Forced : No

Text #11
ID : 13
Format : UTF-8
Codec ID : S_TEXT/UTF8
Codec ID/Info : UTF-8 Plain Text
Duration : 54 min 10 s
Bit rate : 47 b/s
Frame rate : 0.186 FPS
Count of elements : 604
Stream size : 18.9 KiB (0%)
Title : Espa?ol (Espa?a)
Language : Spanish
Default : No
Forced : No

Text #12
ID : 14
Format : UTF-8
Codec ID : S_TEXT/UTF8
Codec ID/Info : UTF-8 Plain Text
Duration : 54 min 10 s
Bit rate : 42 b/s
Frame rate : 0.149 FPS
Count of elements : 485
Stream size : 17.0 KiB (0%)
Title : Suomi
Language : Finnish
Default : No
Forced : No

Text #13
ID : 15
Format : UTF-8
Codec ID : S_TEXT/UTF8
Codec ID/Info : UTF-8 Plain Text
Duration : 54 min 10 s
Bit rate : 48 b/s
Frame rate : 0.188 FPS
Count of elements : 612
Stream size : 19.4 KiB (0%)
Title : Suomi (Israel)
Language : Finnish
Default : No
Forced : No

Text #14
ID : 16
Format : UTF-8
Codec ID : S_TEXT/UTF8
Codec ID/Info : UTF-8 Plain Text
Duration : 50 min 53 s
Bit rate : 72 b/s
Frame rate : 0.273 FPS
Count of elements : 834
Stream size : 27.1 KiB (0%)
Title : Fran?ais
Language : French
Default : No
Forced : No

Text #15
ID : 17
Format : UTF-8
Codec ID : S_TEXT/UTF8
Codec ID/Info : UTF-8 Plain Text
Duration : 54 min 8 s
Bit rate : 78 b/s
Frame rate : 0.179 FPS
Count of elements : 583
Stream size : 31.0 KiB (0%)
Title : ?????
Language : Hebrew
Default : No
Forced : No

Text #16
ID : 18
Format : UTF-8
Codec ID : S_TEXT/UTF8
Codec ID/Info : UTF-8 Plain Text
Duration : 54 min 10 s
Bit rate : 42 b/s
Frame rate : 0.184 FPS
Count of elements : 598
Stream size : 16.7 KiB (0%)
Title : Hrvatski
Language : Croatian
Default : No
Forced : No

Text #17
ID : 19
Format : UTF-8
Codec ID : S_TEXT/UTF8
Codec ID/Info : UTF-8 Plain Text
Duration : 54 min 8 s
Bit rate : 49 b/s
Frame rate : 0.186 FPS
Count of elements : 605
Stream size : 19.5 KiB (0%)
Title : Magyar
Language : Hungarian
Default : No
Forced : No

Text #18
ID : 20
Format : UTF-8
Codec ID : S_TEXT/UTF8
Codec ID/Info : UTF-8 Plain Text
Duration : 54 min 10 s
Bit rate : 46 b/s
Frame rate : 0.187 FPS
Count of elements : 609
Stream size : 18.5 KiB (0%)
Title : Bahasa Indonesia
Language : Indonesian
Default : No
Forced : No

Text #19
ID : 21
Format : UTF-8
Codec ID : S_TEXT/UTF8
Codec ID/Info : UTF-8 Plain Text
Duration : 54 min 10 s
Bit rate : 46 b/s
Frame rate : 0.171 FPS
Count of elements : 557
Stream size : 18.5 KiB (0%)
Title : Italiano
Language : Italian
Default : No
Forced : No

Text #20
ID : 22
Format : UTF-8
Codec ID : S_TEXT/UTF8
Codec ID/Info : UTF-8 Plain Text
Duration : 50 min 53 s
Bit rate : 46 b/s
Frame rate : 0.199 FPS
Count of elements : 609
Stream size : 17.4 KiB (0%)
Title : 日本語
Language : Japanese
Default : No
Forced : No

Text #21
ID : 23
Format : UTF-8
Codec ID : S_TEXT/UTF8
Codec ID/Info : UTF-8 Plain Text
Duration : 54 min 8 s
Bit rate : 43 b/s
Frame rate : 0.187 FPS
Count of elements : 608
Stream size : 17.4 KiB (0%)
Title : Bahasa Malaysia
Language : Malay
Default : No
Forced : No

Text #22
ID : 24
Format : UTF-8
Codec ID : S_TEXT/UTF8
Codec ID/Info : UTF-8 Plain Text
Duration : 54 min 10 s
Bit rate : 45 b/s
Frame rate : 0.162 FPS
Count of elements : 528
Stream size : 18.2 KiB (0%)
Title : Norsk Bokm?l
Language : Norwegian Bokmal
Default : No
Forced : No

Text #23
ID : 25
Format : UTF-8
Codec ID : S_TEXT/UTF8
Codec ID/Info : UTF-8 Plain Text
Duration : 54 min 10 s
Bit rate : 45 b/s
Frame rate : 0.175 FPS
Count of elements : 569
Stream size : 18.1 KiB (0%)
Title : Nederlands
Language : Dutch
Default : No
Forced : No

Text #24
ID : 26
Format : UTF-8
Codec ID : S_TEXT/UTF8
Codec ID/Info : UTF-8 Plain Text
Duration : 54 min 10 s
Bit rate : 45 b/s
Frame rate : 0.183 FPS
Count of elements : 594
Stream size : 17.9 KiB (0%)
Title : Polski
Language : Polish
Default : No
Forced : No

Text #25
ID : 27
Format : UTF-8
Codec ID : S_TEXT/UTF8
Codec ID/Info : UTF-8 Plain Text
Duration : 54 min 7 s
Bit rate : 48 b/s
Frame rate : 0.186 FPS
Count of elements : 605
Stream size : 19.4 KiB (0%)
Title : Português
Language : Portuguese
Default : No
Forced : No

Text #26
ID : 28
Format : UTF-8
Codec ID : S_TEXT/UTF8
Codec ID/Info : UTF-8 Plain Text
Duration : 54 min 10 s
Bit rate : 49 b/s
Frame rate : 0.186 FPS
Count of elements : 604
Stream size : 19.8 KiB (0%)
Title : Português (Brasil)
Language : Portuguese
Default : No
Forced : No

Text #27
ID : 29
Format : UTF-8
Codec ID : S_TEXT/UTF8
Codec ID/Info : UTF-8 Plain Text
Duration : 54 min 10 s
Bit rate : 48 b/s
Frame rate : 0.181 FPS
Count of elements : 588
Stream size : 19.4 KiB (0%)
Title : Roman?
Language : Romanian
Default : No
Forced : No

Text #28
ID : 30
Format : UTF-8
Codec ID : S_TEXT/UTF8
Codec ID/Info : UTF-8 Plain Text
Duration : 50 min 53 s
Bit rate : 50 b/s
Frame rate : 0.189 FPS
Count of elements : 577
Stream size : 18.9 KiB (0%)
Title : Svenska
Language : Swedish
Default : No
Forced : No

Text #29
ID : 31
Format : UTF-8
Codec ID : S_TEXT/UTF8
Codec ID/Info : UTF-8 Plain Text
Duration : 54 min 7 s
Bit rate : 108 b/s
Frame rate : 0.188 FPS
Count of elements : 609
Stream size : 42.9 KiB (0%)
Title : ???
Language : Thai
Default : No
Forced : No

Text #30
ID : 32
Format : UTF-8
Codec ID : S_TEXT/UTF8
Codec ID/Info : UTF-8 Plain Text
Duration : 50 min 53 s
Bit rate : 50 b/s
Frame rate : 0.167 FPS
Count of elements : 511
Stream size : 18.8 KiB (0%)
Title : Türk?e
Language : Turkish
Default : No
Forced : No

Text #31
ID : 33
Format : UTF-8
Codec ID : S_TEXT/UTF8
Codec ID/Info : UTF-8 Plain Text
Duration : 54 min 10 s
Bit rate : 75 b/s
Frame rate : 0.188 FPS
Count of elements : 611
Stream size : 29.8 KiB (0%)
Title : Укра?нська
Language : Ukrainian
Default : No
Forced : No

Text #32
ID : 34
Format : UTF-8
Codec ID : S_TEXT/UTF8
Codec ID/Info : UTF-8 Plain Text
Duration : 54 min 10 s
Bit rate : 61 b/s
Frame rate : 0.186 FPS
Count of elements : 603
Stream size : 24.3 KiB (0%)
Title : Ti?ng Vi?t
Language : Vietnamese
Default : No
Forced : No

Menu
00:00:00.000 : en:Part 01
00:52:02.000 : en:Credits


点击图片可查看大图

软字幕无法在截图上展现,HDR版本/杜比视界版本截图会出现颜色异常,请使用支持的设备播放!



1 个附件 售价 大小 下载 时间

The.Bequeathed.S01.2024.1080p.NF.WEB-DL.DDP5.1.Atmos.H264-LelveTV[1LOU.ME].torrent 0 金币 31.68K 301 次 1月前

#1楼
发帖时间:2024-02-28 10:40:44   |   回复数:0
游客组