Asuka601
隐世仙人♂

[2022] [香港] [剧情] [BD-1080P] 我的非凡父母[国英多音轨/中文字幕].Sunshine.of.My.Life.2022.BluRay.REMUX.1080p.AVC.TrueHD7.1.2Au

-->

完整标题:我的非凡父母[国英多音轨/中文字幕].Sunshine.of.My.Life.2022.BluRay.REMUX.1080p.AVC.TrueHD7.1.2Audio-DreamHD 17.59GB



◎标  题 我的非凡父母
◎译  名 一路瞳行 / 一路同行 / Sunshine of My Life
◎年  代 2022
◎产  地 中国香港 / 中国大陆
◎类  别 剧情 / 家庭
◎语  言 粤语 / 汉语普通话
◎上映日期 2022-09-02(中国大陆) / 2022-04-26(意大利远东国际电影节)
◎IMDb评分 6.5/10 (110人评价)
◎IMDb链接 https://www.imdb.com/title/tt21828558/
◎豆瓣评分 6.9/10 (9877人评价)
◎豆瓣链接 https://movie.douban.com/subject/35350799/
◎片  长 96分钟 / 92分钟(中国大陆)
◎导  演 朱凤娴 Judy Chu Fung-Han
◎编  剧 朱凤娴 Judy Chu Fung-Han
◎演  员 惠英红 Kara Wai Ying Hung
      吴岱融 Hugo Ng Doi-Yung
      吴千语 Karena Ng
      杨天宇 Angus Yeung
      陈贝儿 Janis Chan
      李生衍 Peter Lee

◎简  介
    影片讲述拥有一双明眸的朱芷欣(吴千语 饰),却有一对失明父母:甘笑红(惠英红 饰)、朱国强(吴岱融 饰)。乖巧懂事的她从小便成为父母的“眼睛”,为父母描绘世间的形状与颜色。随着女孩青春期的到来,热爱绘画并天赋异禀的她渴望到国外攻读艺术,观念的冲突、频繁的争吵使家庭气氛降到了冰点。在机会来临之际,芷欣将会在家庭和梦想之间作何选择?

点击图片可查看大图

软字幕无法在截图上展现,HDR版本/杜比视界版本截图会出现颜色异常,请使用支持的设备播放!

##### MediaInfo ######
General
Unique ID : 121580829551265529418054948805116284503 (0x5B779DB41E0911C90FBAA4BA44B1CE57)
Complete name : Sunshine.of.My.Life.2022.BluRay.REMUX.1080p.AVC.TrueHD7.1.2Audio-DreamHD.mkv
Duration : 1 h 35 min
Overall bit rate mode : Variable
Overall bit rate : 26.3 Mb/s

Video
ID : 1
ID in the original source medium : 4113 (0x1011)
Format : AVC
Format/Info : Advanced Video Codec
Format profile : [email protected]
Format settings : CABAC / 4 Ref Frames
Format settings, CABAC : Yes
Format settings, Reference frames : 4 frames
Codec ID : V_MPEG4/ISO/AVC
Duration : 1 h 35 min
Bit rate mode : Variable
Bit rate : 21.8 Mb/s
Maximum bit rate : 28.0 Mb/s
Width : 1 920 pixels
Height : 1 080 pixels
Display aspect ratio : 16:9
Frame rate mode : Constant
Frame rate : 24.000 FPS
Color space : YUV
Chroma subsampling : 4:2:0
Bit depth : 8 bits
Scan type : Progressive
Bits/(Pixel*Frame) : 0.437
Stream size : 14.5 GiB (83%)
Language : English
Default : No
Forced : No
Original source medium : Blu-ray

Audio #1
ID : 2
ID in the original source medium : 4352 (0x1100)
Format : MLP FBA
Format/Info : Meridian Lossless Packing FBA
Commercial name : Dolby TrueHD
Codec ID : A_TRUEHD
Duration : 1 h 35 min
Bit rate mode : Variable
Bit rate : 3 752 kb/s
Maximum bit rate : 5 418 kb/s
Channel(s) : 8 channels
Channel layout : L R C LFE Ls Rs Lb Rb
Sampling rate : 96.0 kHz
Frame rate : 1 200.000 FPS (80 SPF)
Bit depth : 24 bits
Compression mode : Lossless
Stream size : 2.50 GiB (14%)
Title : 环绕声 7.1
Language : Chinese
Default : Yes
Forced : No
Original source medium : Blu-ray

Audio #2
ID : 3
Format : E-AC-3
Format/Info : Enhanced AC-3
Commercial name : Dolby Digital Plus
Format profile : Blu-ray Disc
Codec ID : A_EAC3
Duration : 1 h 35 min
Bit rate mode : Constant
Bit rate : 768 kb/s
Channel(s) : 8 channels
Channel layout : L R C LFE Ls Rs Lb Rb
Sampling rate : 48.0 kHz
Frame rate : 31.250 FPS (1536 SPF)
Compression mode : Lossy
Stream size : 525 MiB (3%)
Title : 环绕声 7.1
Language : Chinese
Service kind : Complete Main
Default : No
Forced : No

Text #1
ID : 4
ID in the original source medium : 4608 (0x1200)
Format : PGS
Codec ID : S_HDMV/PGS
Codec ID/Info : Picture based subtitle format used on BDs/HD-DVDs
Duration : 1 h 31 min
Bit rate : 34.4 kb/s
Frame rate : 0.391 FPS
Count of elements : 2151
Stream size : 22.6 MiB (0%)
Language : Chinese
Default : Yes
Forced : No
Original source medium : Blu-ray

Text #2
ID : 5
ID in the original source medium : 4609 (0x1201)
Format : PGS
Codec ID : S_HDMV/PGS
Codec ID/Info : Picture based subtitle format used on BDs/HD-DVDs
Duration : 1 h 31 min
Bit rate : 32.0 kb/s
Frame rate : 0.391 FPS
Count of elements : 2151
Stream size : 21.0 MiB (0%)
Language : Chinese
Default : No
Forced : No
Original source medium : Blu-ray

Menu
00:00:00.000 : en:Chapter 01
00:06:57.375 : en:Chapter 02
00:15:41.958 : en:Chapter 03
00:21:34.916 : en:Chapter 04
00:30:44.875 : en:Chapter 05
00:39:10.208 : en:Chapter 06
00:45:19.166 : en:Chapter 07
00:55:39.208 : en:Chapter 08
01:02:38.750 : en:Chapter 09
01:12:04.708 : en:Chapter 10
01:21:52.666 : en:Chapter 11
01:26:48.083 : en:Chapter 12


部分资源为软字幕,移动端推荐播放器:MxPlayer,nPlayer,infuse ,其他播放器请自行尝试。

部分资源为软字幕,电脑端推荐播放器:PotPlayer,完美解码,KMPLAYER,其他播放器请自行尝试。



1 个附件 售价 大小 下载 时间

Sunshine.of.My.Life.2022.BluRay.REMUX.1080p.AVC.TrueHD7.1.2Audio-DreamHD[1LOU.ME].torrent 0 金币 47.10K 1729 次 1月前

#1楼
发帖时间:2024-02-26 14:35:25   |   回复数:0
游客组