Asuka601
隐世仙人♂

[2023] [欧美] [爱情] [WEB-4K] 可怜的东西[杜比视界版本][无字片源].Poor.Things.2023.2160p.iTunes.WEB-DL.DDP.5.1.Atmos.DV.H.265-

-->

完整标题:可怜的东西[杜比视界版本][无字片源].Poor.Things.2023.2160p.iTunes.WEB-DL.DDP.5.1.Atmos.DV.H.265-DreamHD 25.09GB



◎标  题 可怜的东西
◎译  名 小可怜
◎片  名 Poor Things
◎年  代 2023
◎产  地 美国 / 爱尔兰 / 英国
◎类  别 爱情 / 科幻
◎语  言 英语
◎上映日期 2023-09-01(威尼斯电影节) / 2023-12-08(美国)
◎IMDb评分 8.5/10 (17245人评价)
◎IMDb链接 https://www.imdb.com/title/tt14230458/
◎豆瓣评分 8.1/10 (3143人评价)
◎豆瓣链接 https://movie.douban.com/subject/35350109/
◎片  长 141分钟
◎导  演 欧格斯·兰斯莫斯 Yorgos Lanthimos
◎编  剧 托尼·麦克纳马拉 Tony McNamara
      阿拉斯代尔·格雷 Alasdair Gray
◎演  员 艾玛·斯通 Emma Stone
      威廉·达福 Willem Dafoe
      马克·鲁弗洛 Mark Ruffalo
      拉米·尤素夫 Ramy Youssef
      克里斯托弗·阿波特 Christopher Abbott
      杰洛德·卡尔迈克 Jerrod Carmichael
      玛格丽特·库里 Margaret Qualley
      凯瑟琳·亨特 Kathryn Hunter
      苏西·本巴 Suzy Bemba
      汉娜·许古拉 Hanna Schygulla
      薇琪·佩珀代因 Vicki Pepperdine
      韦恩·布雷特 Wayne Brett
      杰克·巴顿 Jack Barton
      查理·希斯科克 Charlie Hiscock
      阿提拉·多拜 Attila Dobai
      艾玛·欣德尔 Emma Hindle
      安德斯·奥洛夫·格伦德伯格 Anders Olof Grundberg
      凯奇凯梅西·阿提拉 Kecskeméthy Attila
      朱西马尔·巴尔博萨 Jucimar Barbosa
      卡米尼奥 Carminho
      达米安·勃纳尔 Damien Bonnard
      杰瑞米·惠勒 Jeremy Wheeler
      薇薇安·索恩 Vivienne Soan
      罗德里克·希尔 Roderick Hill
      安德鲁·赫夫勒 Andrew Hefler
      欧格斯·斯特凡纳科斯 Yorgos Stefanakos
      加博·帕泰 Gábor Patay
      洛朗·博雷尔 Laurent Borel
      多丽娜·科瓦奇 Dorina Kovacs
      鲍里斯·吉洛 Boris Gillot
      迈尔斯·约维安 Miles Jovian
      帕特里克·代·瓦莱特 Patrick de Valette
      亚诺什·格莱布 János Geréb
      马苏德·达希尔 Mascuud Dahir
      塔马斯·萨博·西珀斯 Tamás Szabó Sipos
      多诺万·福西尔 Donovan Fouassier
      诺亚·布雷顿 Noah Breton
      欧文·古德 Owen Good
      亚历山德拉·托特 Alexandra Tóth
      萨姆·J·夏沃 Sam J. Schiavo
      瑟林纳·施莱谢尔 Celina Schleicher
      希沙姆·奥马尔 Hisham Omer
      格戈·博尔巴斯 Gergo Borbas
      戴维·布罗姆利 David Bromley
      约翰·洛克 John Locke
      布鲁纳·阿斯多里安 Bruna Asdorian
      杰尔斯金·芬德里克斯 Jerskin Fendrix
      兹恩·约书亚·泊松 Zen Joshua Poisson
      凯特·汉福德 Kate Handford
      古斯塔沃·戈麦斯 Gustavo Gomes
      安杰拉·保拉·史丹德尔 Angela Paula Stander

◎简  介
    影片基于苏格兰作家阿拉斯代尔·格雷所著同名小说,融合现实主义、奇幻、科幻元素,将弗兰肯斯坦的故事重塑,设定在维多利亚时代晚期,逃避丈夫虐待却不幸身亡的女子贝拉(艾玛·斯通 Emma Stone 饰),在被科学家成功复活后,心智停留在孩童阶段,却也对未知世界充满渴望;她与放荡律师私奔踏上挖掘自我的冒险,试图摆脱时代对女性偏见,追求平等与性解放。

点击图片可查看大图

软字幕无法在截图上展现,HDR版本/杜比视界版本截图会出现颜色异常,请使用支持的设备播放!

##### MediaInfo ######
General
Unique ID : 224901955965188937930624401276179792443 (0xA9328A89194B0ACAA3E518B07CE7423B)
Complete name : Poor.Things.2023.2160p.iTunes.WEB-DL.DDP.5.1.Atmos.DV.H.265-DreamHD.mkv
Duration : 2 h 21 min
Overall bit rate : 25.4 Mb/s

Video
ID : 1
Format : HEVC
Format/Info : High Efficiency Video Coding
Format profile : Main 10@L5@High
HDR format : Dolby Vision, Version 1.0, dvhe.05.06, BL+RPU
Codec ID : V_MPEGH/ISO/HEVC
Duration : 2 h 21 min
Bit rate : 24.6 Mb/s
Width : 3 582 pixels
Height : 2 160 pixels
Display aspect ratio : 5:3
Frame rate mode : Constant
Frame rate : 24.000 FPS
Color space : YUV
Chroma subsampling : 4:2:0
Bit depth : 10 bits
Bits/(Pixel*Frame) : 0.132
Stream size : 24.3 GiB (97%)
Language : English
Default : Yes
Forced : No

Audio
ID : 2
Format : E-AC-3 JOC
Format/Info : Enhanced AC-3 with Joint Object Coding
Commercial name : Dolby Digital Plus with Dolby Atmos
Codec ID : A_EAC3
Duration : 2 h 21 min
Bit rate mode : Constant
Bit rate : 768 kb/s
Channel(s) : 6 channels
Channel layout : L R C LFE Ls Rs
Sampling rate : 48.0 kHz
Frame rate : 31.250 FPS (1536 SPF)
Compression mode : Lossy
Stream size : 778 MiB (3%)
Language : English
Service kind : Complete Main
Default : Yes
Forced : No
Complexity index : 16
Number of dynamic objects : 15
Bed channel count : 1 channel
Bed channel configuration : LFE

Text #1
ID : 3
Format : UTF-8
Codec ID : S_TEXT/UTF8
Codec ID/Info : UTF-8 Plain Text
Duration : 2 h 10 min
Bit rate : 46 b/s
Frame rate : 0.208 FPS
Count of elements : 1627
Stream size : 44.6 KiB (0%)
Language : English
Default : No
Forced : No

Text #2
ID : 4
Format : UTF-8
Codec ID : S_TEXT/UTF8
Codec ID/Info : UTF-8 Plain Text
Duration : 2 h 21 min
Bit rate : 43 b/s
Frame rate : 0.193 FPS
Count of elements : 1643
Stream size : 45.6 KiB (0%)
Title : Latin America
Language : Spanish
Default : No
Forced : No

Text #3
ID : 5
Format : UTF-8
Codec ID : S_TEXT/UTF8
Codec ID/Info : UTF-8 Plain Text
Duration : 2 h 21 min
Bit rate : 43 b/s
Frame rate : 0.165 FPS
Count of elements : 1400
Stream size : 45.3 KiB (0%)
Language : French
Default : No
Forced : No

Menu
00:00:00.000 : en:Chapter 01
00:04:51.666 : en:Chapter 02
00:08:12.125 : en:Chapter 03
00:11:12.500 : en:Chapter 04
00:15:42.375 : en:Chapter 05
00:20:07.875 : en:Chapter 06
00:25:42.250 : en:Chapter 07
00:31:38.000 : en:Chapter 08
00:36:54.000 : en:Chapter 09
00:41:05.958 : en:Chapter 10
00:48:28.166 : en:Chapter 11
00:51:27.708 : en:Chapter 12
00:59:05.458 : en:Chapter 13
01:04:49.500 : en:Chapter 14
01:09:36.333 : en:Chapter 15
01:15:48.666 : en:Chapter 16
01:22:32.208 : en:Chapter 17
01:24:11.250 : en:Chapter 18
01:30:57.833 : en:Chapter 19
01:37:16.625 : en:Chapter 20
01:43:33.125 : en:Chapter 21
01:45:18.833 : en:Chapter 22
01:48:23.041 : en:Chapter 23
01:51:10.750 : en:Chapter 24
01:58:14.208 : en:Chapter 25
02:11:36.666 : en:Chapter 26
02:15:57.000 : en:Chapter 27


部分资源为软字幕,移动端推荐播放器:MxPlayer,nPlayer,infuse ,其他播放器请自行尝试。

部分资源为软字幕,电脑端推荐播放器:PotPlayer,完美解码,KMPLAYER,其他播放器请自行尝试。



1 个附件 售价 大小 下载 时间

Poor.Things.2023.2160p.iTunes.WEB-DL.DDP.5.1.Atmos.DV.H.265-DreamHD[1LOU.ME].torrent 0 金币 65.82K 1379 次 1月前

#1楼
发帖时间:2024-02-27 18:05:16   |   回复数:0
游客组